Results 1 to 2 of 2
  1. #1
    dR Rockers www.desirulez.net
    Join Date
    Aug 2011
    Posts
    5,859

    T

    Default Haseena Maan Jaayegi [1999] - 900MB - DVDRip - Mp3 - Dus

    Follow us on Social Media











    ------------------------------------------------------------------
    Haseena Maan Jaayegi [1999] DVDRip Mp3 @ Dus Release
    ------------------------------------------------------------------


    General

    Complete name : D:\Ripped\Haseena Maan Jaayegi [1999] DVDRip Mp3 @ Dus Release\Haseena Maan Jaayegi [1999] DVDRip Mp3 @ Dus Release.avi
    Format : AVI
    Format/Info : Audio Video Interleave
    File size : 898 MiB
    Duration : 2h 31mn
    Overall bit rate mode : Variable
    Overall bit rate : 827 Kbps


    Video

    ID : 0
    Format : MPEG-4 Visual
    Format profile : Advanced [email protected]
    Format settings, BVOP : 2
    Format settings, QPel : No
    Format settings, GMC : No warppoints
    Format settings, Matrix : Default (H.263)
    Codec ID : XVID
    Codec ID/Hint : XviD
    Duration : 2h 31mn
    Bit rate : 700 Kbps
    Width : 640 pixels
    Height : 304 pixels
    Display aspect ratio : 2.2:1
    Frame rate : 23.976 fps
    Color space : YUV
    Chroma subsampling : 4:2:0
    Bit depth : 8 bits
    Scan type : Progressive
    Compression mode : Lossy
    Bits/(Pixel*Frame) : 0.150
    Stream size : 760 MiB (85%)
    Writing library : XviD 1.2.1 (UTC 2008-12-04)


    Audio

    ID : 1
    Format : MPEG Audio
    Format version : Version 1
    Format profile : Layer 3
    Mode : Joint stereo
    Mode extension : MS Stereo
    Codec ID : 55
    Codec ID/Hint : MP3
    Duration : 2h 31mn
    Bit rate mode : Variable
    Bit rate : 115 Kbps
    Nominal bit rate : 128 Kbps
    Channel(s) : 2 channels
    Sampling rate : 48.0 KHz
    Compression mode : Lossy
    Stream size : 124 MiB (14%)
    Alignment : Aligned on interleaves
    Interleave, duration : 24 ms (0.58 video frame)
    Interleave, preload duration : 261 ms
    Title : VTS_01_1 T80 3_2ch 384Kbps DELAY 0ms_new
    Writing library : LAME3.98r
    Encoding settings : -m j -V 4 -q 2 -lowpass 17 --abr 128












    Code:
    http://www.filesonic.com/file/4101612345/Haseena Maan Jaayegi [1999] DVDRip Mp3 @ Dus Release.avi
    Code:
    http://www.fileserve.com/file/UExpRA2/Haseena Maan Jaayegi [1999] DVDRip Mp3 @ Dus Release.avi
    Code:
    http://www.filejungle.com/f/4tdWUZ/Haseena Maan Jaayegi [1999] DVDRip Mp3 @ Dus Release.avi

  2. #2

    Default

    Thank You...Good Post

 

 

Posting Permissions

  • You may not post new threads
  • You may not post replies
  • You may not post attachments
  • You may not edit your posts
  •