Results 1 to 3 of 3
  1. #1
    dR Rockers www.desirulez.net
    Join Date
    Aug 2011
    Posts
    5,859

    T

    Default Indian Babu (2003) DvD - 1GB - Rip - Xvid - Esub - AC3 { ExD XMR }

    Follow us on Social Media








    Indian Babu (2003)










    Ripper : Rahul
    Source : Drs
    Complete name : Indian Babu (2003)
    Format : AVI
    Format/Info : Audio Video Interleave
    File size : 1.07 GiB
    Duration : 2h 43mn
    Overall bit rate : 939 Kbps
    Writing application : VirtualDubMod 1.5.10.3 |


    Video
    ID : 0
    Format : MPEG-4 Visual
    Format profile : Advanced [email protected]
    Format settings, BVOP : 2
    Format settings, QPel : Yes
    Format settings, GMC : No warppoints
    Format settings, Matrix : Default (MPEG)
    Codec ID : XVID
    Codec ID/Hint : XviD
    Duration : 2h 43mn
    Bit rate : 738 Kbps
    Width : 640 pixels
    Height : 288 pixels
    Display aspect ratio : 2.222
    Frame rate : 23.976 fps
    Color space : YUV
    Chroma subsampling : 4:2:0
    Bit depth : 8 bits
    Scan type : Progressive
    Compression mode : Lossy
    Bits/(Pixel*Frame) : 0.167
    Stream size : 864 MiB (79%)
    Writing library : XviD 1.2.1 (UTC 2008-12-04)

    Audio
    ID : 1
    Format : AC-3
    Format/Info : Audio Coding 3
    Format profile : Dolby Digital
    Mode extension : CM (complete main)
    Codec ID : 2000
    Duration : 2h 43mn
    Bit rate mode : Constant
    Bit rate : 192 Kbps
    Channel(s) : 2 channels
    Channel positions : Front: L R
    Sampling rate : 48.0 KHz
    Bit depth : 16 bits
    Compression mode : Lossy
    Stream size : 225 MiB (20%)
    Alignment : Split accross interleaves
    Interleave, duration : 42 ms (1.00 video frame)
    Interleave, preload duration : 500 ms


    Synopsis





    Cast






















    Code:
    http://www.filesonic.com/file/4091768315/Indian Babu (2003) DvD - 1GB - Rip - Xvid - Esub - AC3 { ExD XMR }.avi
    http://www.filesonic.com/file/4091723835/Indian Babu (2003) DvD - 1GB - Rip - Xvid - Esub - AC3 { ExD XMR }.idx
    http://www.filesonic.com/file/4091723845/Indian Babu (2003) DvD - 1GB - Rip - Xvid - Esub - AC3 { ExD XMR }.sub
    Code:
    http://www.fileserve.com/file/22aJScD/Indian Babu (2003) DvD - 1GB - Rip - Xvid - Esub - AC3 { ExD XMR }.avi
    http://www.fileserve.com/file/pVC3cAa/Indian Babu (2003) DvD - 1GB - Rip - Xvid - Esub - AC3 { ExD XMR }.idx
    http://www.fileserve.com/file/xNwgrmF/Indian Babu (2003) DvD - 1GB - Rip - Xvid - Esub - AC3 { ExD XMR }.sub
    Code:
    http://www.filejungle.com/f/xQHjP4/Indian Babu (2003) DvD - 1GB - Rip - Xvid - Esub - AC3 { ExD XMR }.avi
    http://www.filejungle.com/f/5F2RAJ/Indian Babu (2003) DvD - 1GB - Rip - Xvid - Esub - AC3 { ExD XMR }.idx
    http://www.filejungle.com/f/zDKYBW/Indian Babu (2003) DvD - 1GB - Rip - Xvid - Esub - AC3 { ExD XMR }.sub

  2. #2
    New Arrivals
    Join Date
    Dec 2011
    Posts
    5

    T

    Default

    thank you a lot

  3. #3
    New Arrivals
    Join Date
    Dec 2011
    Posts
    5

    T

    Default

    ok thank for share!!!

 

 

Posting Permissions

  • You may not post new threads
  • You may not post replies
  • You may not post attachments
  • You may not edit your posts
  •