Results 1 to 2 of 2
  1. #1
    dR Rockers www.desirulez.net
    Join Date
    Aug 2011
    Posts
    5,859

    T

    Default Chaalbaaz (1989) - 1.37GB - 2CD - DVDRip - XViD - 6 Channels - ESubs - {ExD|XMR}

    Follow us on Social Media













    *File Info*

    Quote
    Format : AVI
    Format/Info : Audio Video Interleave
    File size : 1.37 GiB
    Duration : 2h 30mn
    Overall bit rate : 1 302 Kbps
    Writing application : VirtualDubMod 1.5.10.2 (build 2542/release)
    Writing library : VirtualDubMod build 2542/release

    Video
    ID : 0
    Format : MPEG-4 Visual
    Format profile : Advanced [email protected]
    Format settings, BVOP : 2
    Format settings, QPel : Yes
    Format settings, GMC : No warppoints
    Format settings, Matrix : Custom
    Codec ID : XVID
    Codec ID/Hint : XviD
    Duration : 2h 30mn
    Bit rate : 1 069 Kbps
    Width : 608 pixels
    Height : 336 pixels
    Display aspect ratio : 16:9
    Frame rate : 23.976 fps
    Color space : YUV
    Chroma subsampling : 4:2:0
    Bit depth : 8 bits
    Scan type : Progressive
    Compression mode : Lossy
    Bits/(Pixel*Frame) : 0.218
    Stream size : 1.12 GiB (82%)
    Writing library : XviD 1.2.1 (UTC 2008-12-04)

    Audio
    ID : 1
    Format : AC-3
    Format/Info : Audio Coding 3
    Mode extension : CM (complete main)
    Codec ID : 2000
    Duration : 2h 30mn
    Bit rate mode : Constant
    Bit rate : 224 Kbps
    Channel(s) : 6 channels
    Channel positions : Front: L C R, Side: L R, LFE
    Sampling rate : 48.0 KHz
    Bit depth : 16 bits
    Compression mode : Lossy
    Stream size : 241 MiB (17%)
    Alignment : Split accross interleaves
    Interleave, duration : 42 ms (1.00 video frame)
    Interleave, preload duration : 500 ms



    Ripper Myself(Ajit)
    Source DVD9
    Subtitle English

    XMR Encode! Enjoy! Bad source, bad colours ... made lot of efforts in restoring.

    *Movie Info*

    ChaalBaaz (1989) - IMDb
    ChaalBaaz - Wikipedia, the free encyclopedia


    *Screenshots*











    << S A M P L E >>

    ***Thanks Bolne ka Bhailog***



    SINGLE LINK

    Code:
    http://www.filesonic.com/file/4091708165/Chaalbaaz 2CD XViD -=XMR=-.avi
    Code:
    http://www.fileserve.com/file/932uFbn/Chaalbaaz 2CD XViD -=XMR=-.avi
    Code:
    http://www.filejungle.com/f/EYZZq2/Chaalbaaz 2CD XViD -=XMR=-.avi


    450MB LINKS

    Code:
    http://www.filesonic.com/file/4091713195/Chaalbaaz 2CD XViD -=XMR=-.avi.001
    http://www.filesonic.com/file/4091713065/Chaalbaaz 2CD XViD -=XMR=-.avi.002
    http://www.filesonic.com/file/4091689865/Chaalbaaz 2CD XViD -=XMR=-.avi.003
    http://www.filesonic.com/file/4091698555/Chaalbaaz 2CD XViD -=XMR=-.avi.004
    http://www.filesonic.com/file/4091712745/Chaalbaaz 2CD XViD -=XMR=-.srt
    
    
    http://www.fileserve.com/file/bRFAgxp/Chaalbaaz 2CD XViD -=XMR=-.avi.001
    http://www.fileserve.com/file/gHuZUTF/Chaalbaaz 2CD XViD -=XMR=-.avi.002
    http://www.fileserve.com/file/CBt3Sy3/Chaalbaaz 2CD XViD -=XMR=-.avi.003
    http://www.fileserve.com/file/dg9g4RW/Chaalbaaz 2CD XViD -=XMR=-.avi.004
    http://www.fileserve.com/file/mQf7t6B/Chaalbaaz 2CD XViD -=XMR=-.srt
    
    
    http://www.filejungle.com/f/BguXUc/Chaalbaaz 2CD XViD -=XMR=-.avi.001
    http://www.filejungle.com/f/hCjTga/Chaalbaaz 2CD XViD -=XMR=-.avi.002
    http://www.filejungle.com/f/54ZVvv/Chaalbaaz 2CD XViD -=XMR=-.avi.003
    http://www.filejungle.com/f/tnTUaq/Chaalbaaz 2CD XViD -=XMR=-.avi.004
    http://www.filejungle.com/f/DZhWFt/Chaalbaaz 2CD XViD -=XMR=-.srt

  2. #2
    New Arrivals
    Join Date
    Dec 2011
    Posts
    5

    T

    Default

    thank you a lot

 

 

Posting Permissions

  • You may not post new threads
  • You may not post replies
  • You may not post attachments
  • You may not edit your posts
  •