Results 1 to 3 of 3
  1. #1
    dR Rockers www.desirulez.net
    Join Date
    Aug 2011
    Posts
    5,859

    Default Bhagwaan Dada (1986) - 1.30GB -DvD - 2CDRip - XviD - Esub - { ExD XMR }

    Follow us on Social Media





    Bhagwaan Dada (1986) DvD - 2CD - Rip - Xvid - Esub - 6 channels { ExD XMR }






    Bhagwaan Dada (1986)










    Ripper : Rahul
    Complete name : Bhagwaan Dada (1986)
    Format : AVI
    Format/Info : Audio Video Interleave
    File size : 1.30 GiB
    Duration : 2h 27mn
    Overall bit rate : 1 257 Kbps
    Writing application : VirtualDubMod 1.5.10.3 |

    Video
    ID : 0
    Format : MPEG-4 Visual
    Format profile : Advanced [email protected]
    Format settings, BVOP : 2
    Format settings, QPel : Yes
    Format settings, GMC : No warppoints
    Format settings, Matrix : Default (MPEG)
    Codec ID : XVID
    Codec ID/Hint : XviD
    Duration : 2h 27mn
    Bit rate : 1 120 Kbps
    Width : 656 pixels
    Height : 480 pixels
    Display aspect ratio : 4:3
    Frame rate : 23.976 fps
    Color space : YUV
    Chroma subsampling : 4:2:0
    Bit depth : 8 bits
    Scan type : Progressive
    Compression mode : Lossy
    Bits/(Pixel*Frame) : 0.148
    Stream size : 1.16 GiB (89%)
    Writing library : XviD 1.2.1 (UTC 2008-12-04)

    Audio
    ID : 1
    Format : AC-3
    Format/Info : Audio Coding 3
    Mode extension : CM (complete main)
    Codec ID : 2000
    Duration : 2h 27mn
    Bit rate mode : Constant
    Bit rate : 128 Kbps
    Channel(s) : 6 channels
    Channel positions : Front: L C R, Side: L R, LFE
    Sampling rate : 48.0 KHz
    Bit depth : 16 bits
    Compression mode : Lossy
    Stream size : 135 MiB (10%)
    Alignment : Split accross interleaves
    Interleave, duration : 42 ms (1.00 video frame)
    Interleave, preload duration : 500 ms


    Synopsis





    Cast














    SINGLE LINK
    Code:
    http://www.filesonic.com/file/4091710305/Bhagwaan Dada (1986) DvD - 2CD - Rip - Xvid - Esub - 6 channels { ExD XMR }.avi
    Code:
    http://www.fileserve.com/file/7jfQ8pp/Bhagwaan Dada (1986) DvD - 2CD - Rip - Xvid - Esub - 6 channels { ExD XMR }.avi
    Code:
    http://www.filejungle.com/f/6MjtyG/Bhagwaan Dada (1986) DvD - 2CD - Rip - Xvid - Esub - 6 channels { ExD XMR }.avi
    450MB LINKS

    Code:
    http://www.filesonic.com/file/4091712665/Bhagwaan Dada (1986) DvD - 2CD - Rip - Xvid - Esub - 6 channels { ExD XMR }.avi.001
    http://www.filesonic.com/file/4091712855/Bhagwaan Dada (1986) DvD - 2CD - Rip - Xvid - Esub - 6 channels { ExD XMR }.avi.002
    http://www.filesonic.com/file/4091713085/Bhagwaan Dada (1986) DvD - 2CD - Rip - Xvid - Esub - 6 channels { ExD XMR }.avi.003
    http://www.filesonic.com/file/4091678395/Bhagwaan Dada (1986) DvD - 2CD - Rip - Xvid - Esub - 6 channels { ExD XMR }.idx
    http://www.filesonic.com/file/4091678485/Bhagwaan Dada (1986) DvD - 2CD - Rip - Xvid - Esub - 6 channels { ExD XMR }.sub
    
    
    http://www.fileserve.com/file/uSE3adu/Bhagwaan Dada (1986) DvD - 2CD - Rip - Xvid - Esub - 6 channels { ExD XMR }.avi.001
    http://www.fileserve.com/file/cWa4fbw/Bhagwaan Dada (1986) DvD - 2CD - Rip - Xvid - Esub - 6 channels { ExD XMR }.avi.002
    http://www.fileserve.com/file/zycUnSy/Bhagwaan Dada (1986) DvD - 2CD - Rip - Xvid - Esub - 6 channels { ExD XMR }.avi.003
    http://www.fileserve.com/file/DvCkEd8/Bhagwaan Dada (1986) DvD - 2CD - Rip - Xvid - Esub - 6 channels { ExD XMR }.idx
    http://www.fileserve.com/file/n8SgEye/Bhagwaan Dada (1986) DvD - 2CD - Rip - Xvid - Esub - 6 channels { ExD XMR }.sub
    
    
    http://www.filejungle.com/f/Rkjnmc/Bhagwaan Dada (1986) DvD - 2CD - Rip - Xvid - Esub - 6 channels { ExD XMR }.avi.001
    http://www.filejungle.com/f/y8mz8Z/Bhagwaan Dada (1986) DvD - 2CD - Rip - Xvid - Esub - 6 channels { ExD XMR }.avi.002
    http://www.filejungle.com/f/XhtqKt/Bhagwaan Dada (1986) DvD - 2CD - Rip - Xvid - Esub - 6 channels { ExD XMR }.avi.003
    http://www.filejungle.com/f/YqxNTr/Bhagwaan Dada (1986) DvD - 2CD - Rip - Xvid - Esub - 6 channels { ExD XMR }.idx
    http://www.filejungle.com/f/5VnUbT/Bhagwaan Dada (1986) DvD - 2CD - Rip - Xvid - Esub - 6 channels { ExD XMR }.sub

  2. #2
    New Arrivals
    Join Date
    Dec 2011
    Posts
    5

    Default

    thank you a lot

  3. #3
    New Arrivals
    Join Date
    Dec 2011
    Posts
    5

    Default

    good movie!!

 

 

Posting Permissions

  • You may not post new threads
  • You may not post replies
  • You may not post attachments
  • You may not edit your posts
  •