Results 1 to 1 of 1
  1. #1

    Thumbs up Dussasana (2011) [Telugu] NTSC DVD5 - AMP

    Follow us on Social Media








    Overall bit rate : 4 121 Kbps

    Video
    ID : 224 (0xE0)
    Format : MPEG Video
    Format version : Version 2
    Format profile : [email protected]
    Format settings, BVOP : Yes
    Format settings, Matrix : Custom
    Duration : 34mn 43s
    Bit rate : 3 591 Kbps
    Maximum bit rate : 6 000 Kbps
    Width : 720 pixels
    Height : 480 pixels
    Display aspect ratio : 16:9
    Frame rate : 23.976 fps
    Standard : NTSC
    Color space : YUV
    Chroma subsampling : 4:2:0
    Bit depth : 8 bits
    Scan type : Progressive
    Scan order : 2:3 Pulldown
    Compression mode : Lossy
    Bits/(Pixel*Frame) : 0.433
    Stream size : 892 MiB (87%)

    Audio
    ID : 189 (0xBD)-128 (0x80)
    Format : AC-3
    Format/Info : Audio Coding 3
    Mode extension : CM (complete main)
    Muxing mode : DVD-Video
    Duration : 34mn 44s
    Bit rate mode : Constant
    Bit rate : 448 Kbps
    Channel(s) : 6 channels
    Channel positions : Front: L C R, Side: L R, LFE
    Sampling rate : 48.0 KHz
    Bit depth : 16 bits
    Compression mode : Lossy
    Delay relative to video : -513ms
    Stream size : 111 MiB (11%)









    Code:
    http://www.filesonic.com/file/2985304173/Dussasana.2011.DVD5.NTSC-AMP.part1.rar
    http://www.filesonic.com/file/2985308383/Dussasana.2011.DVD5.NTSC-AMP.part2.rar
    http://www.filesonic.com/file/2985308283/Dussasana.2011.DVD5.NTSC-AMP.part3.rar
    http://www.filesonic.com/file/2985308483/Dussasana.2011.DVD5.NTSC-AMP.part4.rar
    http://www.filesonic.com/file/2985308533/Dussasana.2011.DVD5.NTSC-AMP.part5.rar
    http://www.filesonic.com/file/2985310623/Dussasana.2011.DVD5.NTSC-AMP.part6.rar
    http://www.filesonic.com/file/2985308733/Dussasana.2011.DVD5.NTSC-AMP.part7.rar

    Code:
    http://www.fileserve.com/file/6Ns7gcC/Dussasana.2011.DVD5.NTSC-AMP.part1.rar
    http://www.fileserve.com/file/xPK5v2e/Dussasana.2011.DVD5.NTSC-AMP.part2.rar
    http://www.fileserve.com/file/zurkbQP/Dussasana.2011.DVD5.NTSC-AMP.part3.rar
    http://www.fileserve.com/file/FVuShHj/Dussasana.2011.DVD5.NTSC-AMP.part4.rar
    http://www.fileserve.com/file/VxFyv3y/Dussasana.2011.DVD5.NTSC-AMP.part5.rar
    http://www.fileserve.com/file/3v3DafA/Dussasana.2011.DVD5.NTSC-AMP.part6.rar
    http://www.fileserve.com/file/ByZAb6k/Dussasana.2011.DVD5.NTSC-AMP.part7.rar

    Code:
    http://www.wupload.com/file/1910778687/Dussasana.2011.DVD5.NTSC-AMP.part1.rar
    http://www.wupload.com/file/1910796902/Dussasana.2011.DVD5.NTSC-AMP.part2.rar
    http://www.wupload.com/file/1910792742/Dussasana.2011.DVD5.NTSC-AMP.part3.rar
    http://www.wupload.com/file/1910796907/Dussasana.2011.DVD5.NTSC-AMP.part4.rar
    http://www.wupload.com/file/1910796877/Dussasana.2011.DVD5.NTSC-AMP.part5.rar
    http://www.wupload.com/file/1910816012/Dussasana.2011.DVD5.NTSC-AMP.part6.rar
    http://www.wupload.com/file/1910813382/Dussasana.2011.DVD5.NTSC-AMP.part7.rar
    Man is still the most extraordinary computer of all.




 

 

Posting Permissions

  • You may not post new threads
  • You may not post replies
  • You may not post attachments
  • You may not edit your posts
  •