Results 1 to 1 of 1
  1. #1
    Hot Member www.desirulez.net
    Join Date
    Feb 2011
    Location
    Bulletproof IP
    Posts
    1,189

    T

    Thumbs up Desi Boyz (2011) - 1CD DVDScr - Rip2 - XviD - Esubs - 700MB - {ExD|XMR}

    Follow us on Social Media







    Desi Boyz
    1CD DVDScr - Rip2 - XviD - Esubs - {ExD|XMR}
    (2011)


    Code:
    Format : AVI
    Format/Info : Audio Video Interleave
    File size : 697 MiB
    Duration : 1h 59mn
    Overall bit rate : 813 Kbps
    Writing application : VirtualDubMod 1.5.10.2 (build 2542/release)
    Writing library : VirtualDubMod build 2542/release
    
    Video
    ID : 0
    Format : MPEG-4 Visual
    Format profile : Advanced [email protected]
    Format settings, BVOP : 2
    Format settings, QPel : Yes
    Format settings, GMC : No warppoints
    Format settings, Matrix : Default (H.263)
    Codec ID : XVID
    Codec ID/Hint : XviD
    Duration : 1h 59mn
    Bit rate : 724 Kbps
    Width : 624 pixels
    Height : 272 pixels
    Display aspect ratio : 2.222
    Frame rate : 23.976 fps
    Color space : YUV
    Chroma subsampling : 4:2:0
    Bit depth : 8 bits
    Scan type : Progressive
    Compression mode : Lossy
    Bits/(Pixel*Frame) : 0.178
    Stream size : 621 MiB (89%)
    Writing library : XviD 1.2.1 (UTC 2008-12-04)
    
    Audio
    ID : 1
    Format : MPEG Audio
    Format version : Version 1
    Format profile : Layer 3
    Mode : Joint stereo
    Mode extension : MS Stereo
    Codec ID : 55
    Codec ID/Hint : MP3
    Duration : 1h 59mn
    Bit rate mode : Constant
    Bit rate : 80.0 Kbps
    Channel(s) : 2 channels
    Sampling rate : 32.0 KHz
    Compression mode : Lossy
    Stream size : 68.6 MiB (10%)
    Alignment : Aligned on interleaves
    Interleave, duration : 42 ms (1.00 video frame)
    Interleave, preload duration : 504 ms
    Writing library : LAME3.98r
    Ripper : Ajit @ ExD|XMR
    Source : New Screener by IcTv(Thanx!)
    Runtime : 1hr 59min 51sec
    Sub Titles : English(srt)

    XMR Encode! Enjoy! VDO - all colour channels cleaned, gamma correction, minor Tweaks, audio - just normalized.















    All Credits Goes To Team ExD|XMR (Thanks)

    Single File (Size: 697.08 MB)

    Code:
    http://www.fileserve.com/file/Scx5mV8/DesiBoyz2011_-_1CD-DVDScr-Rip2-XviD-ExD-XMR.avi
    or
    http://www.filesonic.com/file/4074218404/DesiBoyz2011_-_1CD-DVDScr-Rip2-XviD-ExD-XMR.avi
    Split Files (Size: 399MB + 298MB)

    Code:
    http://www.fileserve.com/file/B6DWpkZ/DesiBoyz2011_-_1CD-DVDScr-Rip2-XviD-ExD-XMR.avi.001
    http://www.fileserve.com/file/mGAx5da/DesiBoyz2011_-_1CD-DVDScr-Rip2-XviD-ExD-XMR.avi.002
    or
    http://www.filesonic.com/file/4074115594/DesiBoyz2011_-_1CD-DVDScr-Rip2-XviD-ExD-XMR.avi.001
    http://www.filesonic.com/file/4074109224/DesiBoyz2011_-_1CD-DVDScr-Rip2-XviD-ExD-XMR.avi.002
    English Subtitles

    Code:
    http://www.fileserve.com/file/jJ9SBws/DesiBoyz2011_-_1CD-DVDScr-Rip2-XviD-ExD-XMR.srt
    or
    http://www.filesonic.com/file/4074157515/DesiBoyz2011_-_1CD-DVDScr-Rip2-XviD-ExD-XMR.srt
    If file removed...just reply here, i can Re-upload it any time

 

 

Posting Permissions

  • You may not post new threads
  • You may not post replies
  • You may not post attachments
  • You may not edit your posts
  •