Results 1 to 1 of 1
  1. #1
    dR Rockers www.desirulez.net
    Join Date
    Aug 2011
    Posts
    5,859

    T

    Default Lakshya (2004) - 3GB - 720p - DVDRip - x264 - 6Channel - AAC3 - ESubs - {ExD|XMR}

    Follow us on Social Media











    *File Info*

    Quote
    Format : Matroska
    File size : 2.95 GiB
    Duration : 3h 5mn
    Overall bit rate : 2 283 Kbps
    Encoded date : UTC 2011-12-01 07:25:49
    Writing application : mkvmerge v4.9.1 ('Ich will') built on Jul 11 2011 23:53:15
    Writing library : libebml v1.2.1 + libmatroska v1.1.1

    Video
    ID : 1
    Format : AVC
    Format/Info : Advanced Video Codec
    Format profile : [email protected]
    Format settings, CABAC : Yes
    Format settings, ReFrames : 4 frames
    Codec ID : V_MPEG4/ISO/AVC
    Duration : 3h 5mn
    Bit rate : 2 123 Kbps
    Width : 1 280 pixels
    Height : 544 pixels
    Display aspect ratio : 2.35:1
    Frame rate : 23.976 fps
    Color space : YUV
    Chroma subsampling : 4:2:0
    Bit depth : 8 bits
    Scan type : Progressive
    Bits/(Pixel*Frame) : 0.127
    Stream size : 2.65 GiB (90%)
    Writing library : x264 core 116 r2074 2641b9e

    Audio
    ID : 2
    Format : AC-3
    Format/Info : Audio Coding 3
    Mode extension : CM (complete main)
    Codec ID : A_AC3
    Duration : 3h 5mn
    Bit rate mode : Constant
    Bit rate : 192 Kbps
    Channel(s) : 6 channels
    Channel positions : Front: L C R, Side: L R, LFE
    Sampling rate : 48.0 KHz
    Bit depth : 16 bits
    Compression mode : Lossy
    Delay relative to video : 15s 200ms
    Stream size : 254 MiB (8%)
    Language : Hindi

    Text
    ID : 3
    Format : UTF-8
    Codec ID : S_TEXT/UTF8
    Codec ID/Info : UTF-8 Plain Text



    Ripper Myself(Ajit)
    Source DVD9(Excel)
    Subs English(muxed)

    Upscaled with Slow, HQ, High detail settings. XMR Encode! Enjoy Ratio-Free! Chk d samples and u will know why dis bitrate was chosen ... The file has been split into more manageable 3 chunks, 4 easy handling. D file info is from d composite file taken b4 spliting.

    *Movie Info*

    Lakshya (2004) - IMDb
    http://en.wikipedia....shya_%28film%29


    *Screenshots*

    *Click on d screens 2 get d full view*













    1GB LINKS

    Code:
    http://www.filesonic.com/file/4062116924/Lakshya(2004) 720p -=XMR=- Part-001.mkv
    http://www.filesonic.com/file/4062120634/Lakshya(2004) 720p -=XMR=- Part-002.mkv
    http://www.filesonic.com/file/4062117014/Lakshya(2004) 720p -=XMR=- Part-003.mkv
    Code:
    http://www.fileserve.com/file/2Jh4Mqk/Lakshya(2004) 720p -=XMR=- Part-001.mkv
    http://www.fileserve.com/file/hqgeZcg/Lakshya(2004) 720p -=XMR=- Part-002.mkv
    http://www.fileserve.com/file/wjdWzfU/Lakshya(2004) 720p -=XMR=- Part-003.mkv
    Code:
    http://www.filejungle.com/f/QrwMuz/Lakshya(2004) 720p -=XMR=- Part-001.mkv
    http://www.filejungle.com/f/5SPTkX/Lakshya(2004) 720p -=XMR=- Part-002.mkv
    http://www.filejungle.com/f/9b47F4/Lakshya(2004) 720p -=XMR=- Part-003.mkv

 

 

Posting Permissions

  • You may not post new threads
  • You may not post replies
  • You may not post attachments
  • You may not edit your posts
  •