Results 1 to 1 of 1
  1. #1
    dR Rockers www.desirulez.net
    Join Date
    Aug 2011
    Posts
    5,859

    T

    Default Sitamgar (1985) - 1.37GB - DVDRip - XviD - Mp3 - Dus

    Follow us on Social Media











    ------------------------------------------------------------------
    Sitamgar [1985] DVDRip * Xvid * Mp3 @ Dus Release **
    ------------------------------------------------------------------

    General

    Complete name : E:\Ripped\Sitamgar[1985] DVDRip Xvid Mp3 @ Dus Release\Sitamgar[1985] DVDRip Xvid Mp3 @ Dus Release.avi
    Format : AVI
    Format/Info : Audio Video Interleave
    File size : 1.37 GiB
    Duration : 2h 11mn
    Overall bit rate : 1 494 Kbps
    Writing application : VirtualDubMod 1.5.10.2 (build 2540/release)
    Writing library : VirtualDubMod build 2540/release

    Video

    ID : 0
    Format : MPEG-4 Visual
    Format profile : Advanced [email protected]
    Format settings, BVOP : 2
    Format settings, QPel : No
    Format settings, GMC : No warppoints
    Format settings, Matrix : Default (H.263)
    Codec ID : XVID
    Codec ID/Hint : XviD
    Duration : 2h 11mn
    Bit rate : 1 226 Kbps
    Width : 672 pixels
    Height : 288 pixels
    Display aspect ratio : 2.35:1
    Frame rate : 29.970 fps
    Color space : YUV
    Chroma subsampling : 4:2:0
    Bit depth : 8 bits
    Scan type : Progressive
    Compression mode : Lossy
    Bits/(Pixel*Frame) : 0.211
    Stream size : 1.13 GiB (82%)
    Writing library : XviD 1.2.1 (UTC 2008-12-04)

    Audio

    ID : 1
    Format : MPEG Audio
    Format version : Version 1
    Format profile : Layer 3
    Mode : Joint stereo
    Mode extension : MS Stereo
    Codec ID : 55
    Codec ID/Hint : MP3
    Duration : 2h 11mn
    Bit rate mode : Constant
    Bit rate : 256 Kbps
    Channel(s) : 2 channels
    Sampling rate : 48.0 KHz
    Compression mode : Lossy
    Stream size : 241 MiB (17%)
    Alignment : Aligned on interleaves
    Interleave, duration : 33 ms (1.00 video frame)
    Interleave, preload duration : 504 ms
    Writing library : LAME3.98r
    Encoding settings : -m j -V 4 -q 2 -lowpass 19.7












    SINGLE LINK


    Code:
    http://www.filesonic.com/file/4059619184/Sitamgar[1985] DVDRip Xvid Mp3 @ Dus Release.avi
    Code:
    http://www.fileserve.com/file/zqzJhgB/Sitamgar[1985] DVDRip Xvid Mp3 @ Dus Release.avi
    Code:
    http://www.filejungle.com/f/gEddjk/Sitamgar[1985] DVDRip Xvid Mp3 @ Dus Release.avi


    450MB LINKS


    Code:
    http://www.filesonic.com/file/4059573114/Sitamgar[1985] DVDRip Xvid Mp3 @ Dus Release.avi.001
    http://www.filesonic.com/file/4059575904/Sitamgar[1985] DVDRip Xvid Mp3 @ Dus Release.avi.002
    http://www.filesonic.com/file/4059995524/Sitamgar[1985] DVDRip Xvid Mp3 @ Dus Release.avi.003
    http://www.filesonic.com/file/4059565284/Sitamgar[1985] DVDRip Xvid Mp3 @ Dus Release.avi.004
    
    
    http://www.fileserve.com/file/UqQk38A/Sitamgar[1985] DVDRip Xvid Mp3 @ Dus Release.avi.001
    http://www.fileserve.com/file/wNtAgtt/Sitamgar[1985] DVDRip Xvid Mp3 @ Dus Release.avi.002
    http://www.fileserve.com/file/bTWsKjX/Sitamgar[1985] DVDRip Xvid Mp3 @ Dus Release.avi.003
    http://www.fileserve.com/file/srB2N7x/Sitamgar[1985] DVDRip Xvid Mp3 @ Dus Release.avi.004
    
    
    http://www.filejungle.com/f/rK9TnH/Sitamgar[1985] DVDRip Xvid Mp3 @ Dus Release.avi.001
    http://www.filejungle.com/f/AP2ywd/Sitamgar[1985] DVDRip Xvid Mp3 @ Dus Release.avi.002
    http://www.filejungle.com/f/yEnvTF/Sitamgar[1985] DVDRip Xvid Mp3 @ Dus Release.avi.003
    http://www.filejungle.com/f/KACMAS/Sitamgar[1985] DVDRip Xvid Mp3 @ Dus Release.avi.004

 

 

Posting Permissions

  • You may not post new threads
  • You may not post replies
  • You may not post attachments
  • You may not edit your posts
  •