Results 1 to 1 of 1
  1. #1
    dR Rockers www.desirulez.net
    Join Date
    Aug 2011
    Posts
    5,859

    T

    Default Kachche Dhaage [1999] 1.45GB - DVDRip - XviD - Mp3 - Dus

    Follow us on Social Media












    ------------------------------------------------------------------
    Kachche Dhaage [1999] * DVDRip * Xvid * Mp3 @ Dus Release **
    ------------------------------------------------------------------

    General

    Complete name : D:\Ripped\Kachche Dhaage [1999] DVDRip Xvid Mp3 @ Dus Release\Kachche Dhaage [1999] DVDRip Xvid Mp3 @ Dus Release.avi
    Format : AVI
    Format/Info : Audio Video Interleave
    File size : 1.45 GiB
    Duration : 2h 15mn
    Overall bit rate : 1 526 Kbps

    Video

    ID : 0
    Format : MPEG-4 Visual
    Format profile : Advanced [email protected]
    Format settings, BVOP : 2
    Format settings, QPel : No
    Format settings, GMC : No warppoints
    Format settings, Matrix : Default (H.263)
    Codec ID : XVID
    Codec ID/Hint : XviD
    Duration : 2h 15mn
    Bit rate : 1 263 Kbps
    Width : 640 pixels
    Height : 304 pixels
    Display aspect ratio : 2.2:1
    Frame rate : 29.970 fps
    Color space : YUV
    Chroma subsampling : 4:2:0
    Bit depth : 8 bits
    Scan type : Progressive
    Compression mode : Lossy
    Bits/(Pixel*Frame) : 0.217
    Stream size : 1.20 GiB (83%)
    Writing library : XviD 1.2.1 (UTC 2008-12-04)

    Audio

    ID : 1
    Format : MPEG Audio
    Format version : Version 1
    Format profile : Layer 3
    Mode : Joint stereo
    Codec ID : 55
    Codec ID/Hint : MP3
    Duration : 2h 15mn
    Bit rate mode : Constant
    Bit rate : 256 Kbps
    Channel(s) : 2 channels
    Sampling rate : 48.0 KHz
    Compression mode : Lossy
    Stream size : 249 MiB (17%)
    Alignment : Aligned on interleaves
    Interleave, duration : 133 ms (4.00 video frames)
    Interleave, preload duration : 216 ms
    Title : VTS_01_1 T80 3_2ch 224Kbps DELAY 0ms
    Writing library : LAME3.98r
    Encoding settings : -m j -V 4 -q 2 -lowpass 19.7













    SINGLE LINK


    Code:
    http://www.filesonic.com/file/4059889594/Kachche Dhaage [1999] DVDRip Xvid Mp3 @ Dus Release.avi
    Code:
    http://www.fileserve.com/file/J7AFYA8/Kachche Dhaage [1999] DVDRip Xvid Mp3 @ Dus Release.avi
    Code:
    http://www.filejungle.com/f/vxTfvj/Kachche Dhaage [1999] DVDRip Xvid Mp3 @ Dus Release.avi


    450MB LINKS


    Code:
    http://www.filesonic.com/file/4059816894/Kachche Dhaage [1999] DVDRip Xvid Mp3 @ Dus Release.avi.001
    http://www.filesonic.com/file/4059855704/Kachche Dhaage [1999] DVDRip Xvid Mp3 @ Dus Release.avi.002
    http://www.filesonic.com/file/4059909294/Kachche Dhaage [1999] DVDRip Xvid Mp3 @ Dus Release.avi.003
    http://www.filesonic.com/file/4059872144/Kachche Dhaage [1999] DVDRip Xvid Mp3 @ Dus Release.avi.004
    
    
    http://www.fileserve.com/file/TSw4TEC/Kachche Dhaage [1999] DVDRip Xvid Mp3 @ Dus Release.avi.001
    http://www.fileserve.com/file/SkPfsbW/Kachche Dhaage [1999] DVDRip Xvid Mp3 @ Dus Release.avi.002
    http://www.fileserve.com/file/5FhsBhW/Kachche Dhaage [1999] DVDRip Xvid Mp3 @ Dus Release.avi.003
    http://www.fileserve.com/file/UMjKGDf/Kachche Dhaage [1999] DVDRip Xvid Mp3 @ Dus Release.avi.004
    
    
    http://www.filejungle.com/f/26mTBK/Kachche Dhaage [1999] DVDRip Xvid Mp3 @ Dus Release.avi.001
    http://www.filejungle.com/f/ybdMMz/Kachche Dhaage [1999] DVDRip Xvid Mp3 @ Dus Release.avi.002
    http://www.filejungle.com/f/4CQGdC/Kachche Dhaage [1999] DVDRip Xvid Mp3 @ Dus Release.avi.003
    http://www.filejungle.com/f/nGPJ3D/Kachche Dhaage [1999] DVDRip Xvid Mp3 @ Dus Release.avi.004

 

 

Posting Permissions

  • You may not post new threads
  • You may not post replies
  • You may not post attachments
  • You may not edit your posts
  •