Results 1 to 1 of 1
  1. #1
    dR Contributor www.desirulez.net
    Join Date
    Jan 2011
    Posts
    2,299

    T

    Smile Big Brother (2007) - 500MB - DVDRip - Xvid - [DS]

    Follow us on Social Media









    Year Of Release : 2007
    Cast : Sunny Deol, Priyanka Chopra, Danny Denzongpa, Farida Jalal, Suhasini Mulay
    Producer : Ninth Jan Jeet Entertainment
    Director : Guddu Dhanoa

    Storyline

    S.P. Sharma lives a middle-class lifestyle in Delhi, India, along with his wife, and son, Devdhar. His wife passes away, and Sharma re-marries Sitadevi when Devdhar is only 3 years of age. Sita cares for him as if he were her own, even after giving birth to a son, Akash, and daughter, Anjali. Now Sharma has passed away, while all 3 children have matured. Devdhar gets married to Aarti. Anjali is seduced by the son of the Home Minister, Manohar Shinde, and has acid thrown on her face, disfiguring her. An enraged Devdhar kills the culprit, abducts a number of men who have raped and burned their daughter-in-laws, and secures enough money to pay for plastic surgery for Anjali, whose face is eventually restored. Devdhar and his men are now feared by everyone in Delhi, so much so that Prime Minister Urmila asks Manohar to tender his resignation, publicly denounce his son, and re-locate to Bombay...

    Rip Info:


    General

    Complete name : files/B.Brother.2007.DvDRip.DS.avi
    Format : AVI
    Format/Info : Audio Video Interleave
    File size : 487 MiB
    Duration : 2h 4mn
    Overall bit rate : 546 Kbps
    Writing library : VirtualDub build 32817/release

    Video

    ID : 0
    Format : MPEG-4 Visual
    Format profile : Advanced [email protected]
    Format settings, BVOP : Yes
    Format settings, QPel : No
    Format settings, GMC : No warppoints
    Format settings, Matrix : Default (H.263)
    Muxing mode : Packed bitstream
    Codec ID : XVID
    Codec ID/Hint : XviD
    Duration : 2h 4mn
    Bit rate : 406 Kbps
    Width : 640 pixels
    Height : 272 pixels
    Display aspect ratio : 2.35:1
    Frame rate : 29.970 fps
    Color space : YUV
    Chroma subsampling : 4:2:0
    Bit depth : 8 bits
    Scan type : Progressive
    Bits/(Pixel*Frame) : 0.078
    Stream size : 362 MiB (74%)
    Writing library : XviD 58

    Audio

    ID : 1
    Format : MPEG Audio
    Format version : Version 1
    Format profile : Layer 3
    Mode : Joint stereo
    Mode extension : MS Stereo
    Codec ID : 55
    Codec ID/Hint : MP3
    Duration : 2h 4mn
    Bit rate mode : Constant
    Bit rate : 128 Kbps
    Channel(s) : 2 channels
    Sampling rate : 48.0 KHz
    Video delay : 24ms
    Stream size : 114 MiB (23%)
    Alignment : Split accross interleaves
    Interleave, duration : 33 ms (1.00 video frame)
    Interleave, preload duration : 500 ms




    Credits to original ripper



    Code:
    http://www.fileserve.com/file/v2qHYmd
    OR

    Code:
    http://www.filefactory.com/file/ce951e8


 

 

Posting Permissions

  • You may not post new threads
  • You may not post replies
  • You may not post attachments
  • You may not edit your posts
  •