Results 1 to 1 of 1
  1. #1
    Hot Member www.desirulez.net
    Join Date
    Feb 2011
    Location
    Bulletproof IP
    Posts
    1,189

    T

    Thumbs up Desi Boyz (2011) - 1GB DVDScr - XviD - Esubs - {ExD|XMR}

    Follow us on Social Media







    Desi Boyz
    1GB DVDScr - XviD - Esubs - {ExD|XMR}
    (2011)


    Code:
    Format : AVI
    Format/Info : Audio Video Interleave
    File size : 1 021 MiB
    Duration : 1h 59mn
    Overall bit rate : 1 191 Kbps
    Writing application : VirtualDubMod 1.5.10.2 (build 2542/release)
    Writing library : VirtualDubMod build 2542/release
    
    Video
    ID : 0
    Format : MPEG-4 Visual
    Format profile : Advanced [email protected]
    Format settings, BVOP : 2
    Format settings, QPel : Yes
    Format settings, GMC : No warppoints
    Format settings, Matrix : Custom
    Codec ID : XVID
    Codec ID/Hint : XviD
    Duration : 1h 59mn
    Bit rate : 1 053 Kbps
    Width : 656 pixels
    Height : 288 pixels
    Display aspect ratio : 2.25:1
    Frame rate : 23.976 fps
    Color space : YUV
    Chroma subsampling : 4:2:0
    Bit depth : 8 bits
    Scan type : Progressive
    Compression mode : Lossy
    Bits/(Pixel*Frame) : 0.233
    Stream size : 903 MiB (88%)
    Writing library : XviD 1.2.1 (UTC 2008-12-04)
    
    Audio
    ID : 1
    Format : MPEG Audio
    Format version : Version 1
    Format profile : Layer 3
    Mode : Joint stereo
    Mode extension : MS Stereo
    Codec ID : 55
    Codec ID/Hint : MP3
    Duration : 1h 59mn
    Bit rate mode : Constant
    Bit rate : 128 Kbps
    Channel(s) : 2 channels
    Sampling rate : 48.0 KHz
    Compression mode : Lossy
    Stream size : 110 MiB (11%)
    Alignment : Aligned on interleaves
    Interleave, duration : 42 ms (1.00 video frame)
    Interleave, preload duration : 504 ms
    Writing library : LAME3.98r
    Ripper : Ajit @ ExD|XMR
    Source : New Screener by IcTv(Thanx!)
    Runtime : 1hr 59min 51sec
    Sub Titles : English(srt)

    XMR Encode! Enjoy! Custom colour coding wid multi-point colour corrections(Low/Mid-Tones/Dark), even better denosing dan previous 1CD Rip2. Audio channels balanced, attempt 2 remove shreiks and dull thumps.


    Audio Before



    Audio After
















    All Credits Goes To Team ExD|XMR (Thanks)

    Single File (Size: 1020.72 MB)

    Code:
    http://www.fileserve.com/file/dW5UVUD/DesiBoyz2011_-_1GB-DVDScr-XviD-ExD-XMR.avi
    or
    http://www.filesonic.com/file/4055118824/DesiBoyz2011_-_1GB-DVDScr-XviD-ExD-XMR.avi
    Split Files (Size: 399MB + 399MB + 222MB)

    Code:
    http://www.fileserve.com/file/GqsbTxY/DesiBoyz2011_-_1GB-DVDScr-XviD-ExD-XMR.avi.001
    http://www.fileserve.com/file/s6bZqJn/DesiBoyz2011_-_1GB-DVDScr-XviD-ExD-XMR.avi.002
    http://www.fileserve.com/file/t6ZcNFD/DesiBoyz2011_-_1GB-DVDScr-XviD-ExD-XMR.avi.003
    or
    http://www.filesonic.com/file/4055266574/DesiBoyz2011_-_1GB-DVDScr-XviD-ExD-XMR.avi.001
    http://www.filesonic.com/file/4055257954/DesiBoyz2011_-_1GB-DVDScr-XviD-ExD-XMR.avi.002
    http://www.filesonic.com/file/4055257894/DesiBoyz2011_-_1GB-DVDScr-XviD-ExD-XMR.avi.003
    English Subtitles

    Code:
    http://www.fileserve.com/file/gqBzvtp/DesiBoyz2011_-_1GB-DVDScr-XviD-ExD-XMR.srt
    or
    http://www.filesonic.com/file/4057659194/DesiBoyz2011_-_1GB-DVDScr-XviD-ExD-XMR.srt
    If file removed...just reply here, i can Re-upload it any time

 

 

Posting Permissions

  • You may not post new threads
  • You may not post replies
  • You may not post attachments
  • You may not edit your posts
  •