Results 1 to 1 of 1
  1. #1
    Super Member www.desirulez.net
    Join Date
    Feb 2010
    Posts
    155

    T

    Default RACE(2008)-TELUGU DUBBED-1GB-720P BR [email protected] Mirchi Exclusive

    Follow us on Social Media











    Code:
    Format                           : Matroska
    File size                        : 1 012 MiB
    Duration                         : 2h 35mn
    Overall bit rate                 : 913 Kbps
    Encoded date                     : UTC 2011-11-30 18:41:28
    Writing application              : mkvmerge v4.3.0 ('Escape from the Island') built on Sep  5 2010 10:30:51
    Writing library                  : libebml v1.0.0 + libmatroska v1.0.0
    
    Video
    ID                               : 1
    Format                           : AVC
    Format/Info                      : Advanced Video Codec
    Format profile                   : [email protected]
    Format settings, CABAC           : Yes
    Format settings, ReFrames        : 3 frames
    Muxing mode                      : Header stripping
    Codec ID                         : V_MPEG4/ISO/AVC
    Duration                         : 2h 35mn
    Bit rate mode                    : Variable
    Bit rate                         : 721 Kbps
    Maximum bit rate                 : 25.0 Mbps
    Width                            : 1 280 pixels
    Height                           : 544 pixels
    Display aspect ratio             : 2.35:1
    Frame rate                       : 24.000 fps
    Color space                      : YUV
    Chroma subsampling               : 4:2:0
    Bit depth                        : 8 bits
    Scan type                        : Progressive
    Bits/(Pixel*Frame)               : 0.043
    Stream size                      : 779 MiB (77%)
    Writing library                  : x264 core 114 r1924 08d04a4
    Encoding settings                : cabac=1 / ref=3 / deblock=1:0:0 / analyse=0x3:0x133 / me=umh / subme=7 / psy=1 / psy_rd=1.00:0.00 / mixed_ref=1 / me_range=16 / chroma_me=1 / trellis=1 / 8x8dct=1 / cqm=0 / deadzone=21,11 / fast_pskip=1 / chroma_qp_offset=-2 / threads=6 / sliced_threads=0 / nr=0 / decimate=1 / interlaced=0 / constrained_intra=0 / bframes=3 / b_pyramid=0 / b_adapt=1 / b_bias=0 / direct=1 / weightb=1 / open_gop=0 / weightp=2 / keyint=240 / keyint_min=24 / scenecut=40 / intra_refresh=0 / rc_lookahead=40 / rc=2pass / mbtree=1 / bitrate=721 / ratetol=1.0 / qcomp=0.60 / qpmin=0 / qpmax=69 / qpstep=4 / cplxblur=20.0 / qblur=0.5 / vbv_maxrate=25000 / vbv_bufsize=25000 / nal_hrd=vbr / ip_ratio=1.40 / aq=1:1.00
    
    Audio
    ID                               : 2
    Format                           : AC-3
    Format/Info                      : Audio Coding 3
    Mode extension                   : CM (complete main)
    Muxing mode                      : Header stripping
    Codec ID                         : A_AC3
    Duration                         : 2h 35mn
    Bit rate mode                    : Constant
    Bit rate                         : 192 Kbps
    Channel(s)                       : 2 channels
    Channel positions                : Front: L R
    Sampling rate                    : 48.0 KHz
    Bit depth                        : 16 bits
    Compression mode                 : Lossy
    Stream size                      : 213 MiB (21%)
    SCREEN SHOTS







    GLUMBO UPLOAD LINKS::
    Code:
    http://uploads.glumbo.com/t7x5e41cjl2k
    http://uploads.glumbo.com/abx709h9u18b
    http://uploads.glumbo.com/l6sieodez000
    MUCHSHARE LINKS::
    Code:
    http://muchshare.net/u88ferpmartk
    http://muchshare.net/7nwjllodmu3r
    http://muchshare.net/qrs7qot0x40j
    HOTFILE LINKS::
    Code:
    http://www.hotfile.com/links/136409693/47a410c/RACE(2008)-TELUGU20DUBBED-720p-BR20RIP-AC3-HAPPY59Team20Mirchi.mkv.001.html
    http://www.hotfile.com/links/136409727/78c5b1b/RACE(2008)-TELUGU20DUBBED-720p-BR20RIP-AC3-HAPPY59Team20Mirchi.mkv.002.html
    http://www.hotfile.com/links/136409765/8e14f67/RACE(2008)-TELUGU20DUBBED-720p-BR20RIP-AC3-HAPPY59Team20Mirchi.mkv.003.html
    WUPLOAD LINKS::
    Code:
    http://www.wupload.in/file/2602951357
    http://www.wupload.in/file/2602951937
    http://www.wupload.in/file/2602952327
    SINGLE LINKS::
    Code:
    http://www.wupload.in/file/2602948827
    http://file4sharing.com/snf53tk5f0j4/RACE_2008_-TELUGU_DUBBED-720p-BR_RIP-AC3-HAPPY59_Team_Mirchi.mkv.html#.TtcoBUfq76A
    http://www.filefactory.com/file/cf6f692/n/RACE%282008%[email protected]_Mirchi.mkv
    http://www.filedino.com/lquy9ehxzhco
    CREDIS GOES TO [email protected] MIRCHI

 

 

Posting Permissions

  • You may not post new threads
  • You may not post replies
  • You may not post attachments
  • You may not edit your posts
  •