Results 1 to 1 of 1
  1. #1
    Hot Member www.desirulez.me
    Join Date
    Nov 2011
    Posts
    6,018

    T

    Smile WWE.NXT.November.30.2011.360p.H.264.MM.Snaw90.mp4

    Follow us on Social Media







    WWE.NXT.November.30.2011.360p.H.264.MM.Snaw90.mp4








    Code:
    General
    Complete name              : WWE.NXT.November.30.2011.360p.H.264.MM.Snaw90.mp4
    Format                           : MPEG-4
    Codec ID                        : mp4
    File size                          : 256 MiB
    Duration                         : 49mn 0s
    Source                           : YouTube
    
    
    
    
    
    Video
    
    Format                           : AVC
    Duration                         : 49mn 0s
    Maximum bit rate            : 1818 Kbps
    Width                             : 640 pixels
    Height                            : 360 pixels
    Display aspect ratio       : 16:9
    Frame rate                     : 29.970 fps
    Stream size                    : 222 MiB (87%)
    
    
    Audio
    
    Format                           : AAC
    Duration                         : 49mn 0s
    Bit rate mode                  : Variable
    Bit rate                           : 96.0 Kbps
    Maximum bit rate            : 139 Kbps
    Channel(s)                     : 2 channels
    Sampling rate                 : 44.1 KHz
    Stream size                    : 33.6 MiB (13%)



    Online

    VideoZer - Fast, Free and Reliable Video Hosting - WWE NXT - November.30.2011.360p.H.264.MM.Snaw90

    Code:
    filesonic
    
    
    
    http://www.filesonic.com/file/4054044114
    
    
    
    uploaded.to
    
    
    
    http://uploaded.to/file/6qzczyua
    
    
    
    
    
    filedino
    
    
    
    http://www.filedino.com/1l4tiq2sndd0

 

 

Posting Permissions

  • You may not post new threads
  • You may not post replies
  • You may not post attachments
  • You may not edit your posts
  •