Results 1 to 1 of 1
  1. #1
    dR Contributor www.desirulez.net
    Join Date
    Jan 2011
    Posts
    2,299

    T

    Smile DAM 999 (2011) - 800MB - ScamRip - Xvid - MP3 - [TNG]

    Follow us on Social Media









    File size : 794 MiB
    Duration : 1h 37mn
    Overall bit rate : 1 144 Kbps
    Writing application : Lavf52.39.1

    Video
    ID : 0
    Format : xvid
    Codec ID : xvid
    Duration : 1h 37mn
    Bit rate : 1 067 Kbps
    Width : 588 pixels
    Height : 266 pixels
    Display aspect ratio : 2.2:1
    Frame rate : 25.000 fps
    Bits/(Pixel*Frame) : 0.273
    Stream size : 741 MiB (93%)

    Audio
    ID : 1
    Format : MPEG Audio
    Format version : Version 1
    Format profile : Layer 3
    Mode : Joint stereo
    Mode extension : MS Stereo
    Codec ID : 55
    Codec ID/Hint : MP3
    Duration : 1h 37mn
    Bit rate mode : Constant
    Bit rate : 64.0 Kbps
    Channel(s) : 2 channels
    Sampling rate : 48.0 KHz
    Compression mode : Lossy
    Stream size : 44.4 MiB (6%)
    Alignment : Aligned on interleaves
    Interleave, duration : 24 ms (0.60 video frame)
    Interleave, preload duration : 24 ms







    Credits to "Team NextGen"



    Code:
    http://www.filesonic.com/file/4028786034
    OR

    Code:
    http://www.uploadstation.com/file/HUm9Dqe

 

 

Posting Permissions

  • You may not post new threads
  • You may not post replies
  • You may not post attachments
  • You may not edit your posts
  •