Results 1 to 1 of 1
  1. #1
    Hot Member www.desirulez.net
    Join Date
    Oct 2010
    Posts
    859

    T

    Cool DAM 999 (2011) - 420P - New - SCAM - Rip - XviD - MP3 - 1CD - [TNG]

    Follow us on Social Media









    Code:
    Format                           : AVI
    Format/Info                      : Audio Video Interleave
    File size                        : 794 MiB
    Duration                         : 1h 37mn
    Overall bit rate                 : 1 144 Kbps
    Writing application              : Lavf52.39.1
    
    Video
    ID                               : 0
    Format                           : xvid
    Codec ID                         : xvid
    Duration                         : 1h 37mn
    Bit rate                         : 1 067 Kbps
    Width                            : 588 pixels
    Height                           : 266 pixels
    Display aspect ratio             : 2.2:1
    Frame rate                       : 25.000 fps
    Bits/(Pixel*Frame)               : 0.273
    Stream size                      : 741 MiB (93%)
    
    Audio
    ID                               : 1
    Format                           : MPEG Audio
    Format version                   : Version 1
    Format profile                   : Layer 3
    Mode                             : Joint stereo
    Mode extension                   : MS Stereo
    Codec ID                         : 55
    Codec ID/Hint                    : MP3
    Duration                         : 1h 37mn
    Bit rate mode                    : Constant
    Bit rate                         : 64.0 Kbps
    Channel(s)                       : 2 channels
    Sampling rate                    : 48.0 KHz
    Compression mode                 : Lossy
    Stream size                      : 44.4 MiB (6%)
    Alignment                        : Aligned on interleaves
    Interleave, duration             : 24 ms (0.60 video frame)
    Interleave, preload duration     : 24 ms





    Thumbnail Created BY : SDL



    Credits : Team TNG





    Code:
    http://www.wupload.com/file/2586801182/999.Dam.2011.1CD.SCAM.XviD.MP3-SDL.avi


    Code:
    http://www.filesonic.com/file/4020472474/999.Dam.2011.1CD.SCAM.XviD.MP3-SDL.avi


    Code:
    http://www.fileserve.com/file/VyBqqvx/999.Dam.2011.1CD.SCAM.XviD.MP3-SDL.avi
    Split Links :-

    Code:
    http://www.wupload.com/file/2586834567/999.Dam.2011.1CD.SCAM.XviD.MP3-SDL.avi.001
    http://www.wupload.com/file/2586834572/999.Dam.2011.1CD.SCAM.XviD.MP3-SDL.avi.002
    http://www.wupload.com/file/2586834557/999.Dam.2011.1CD.SCAM.XviD.MP3-SDL.avi.003
    http://www.wupload.com/file/2586834577/999.Dam.2011.1CD.SCAM.XviD.MP3-SDL.avi.004
    http://www.wupload.com/file/2586822877/999.Dam.2011.1CD.SCAM.XviD.MP3-SDL.avi.005
    http://www.wupload.com/file/2586822887/999.Dam.2011.1CD.SCAM.XviD.MP3-SDL.avi.006
    http://www.wupload.com/file/2586834562/999.Dam.2011.1CD.SCAM.XviD.MP3-SDL.avi.007
    Code:
    http://www.filesonic.com/file/4020489034/999.Dam.2011.1CD.SCAM.XviD.MP3-SDL.avi.001
    http://www.filesonic.com/file/4020488674/999.Dam.2011.1CD.SCAM.XviD.MP3-SDL.avi.002
    http://www.filesonic.com/file/4020489094/999.Dam.2011.1CD.SCAM.XviD.MP3-SDL.avi.003
    http://www.filesonic.com/file/4020488974/999.Dam.2011.1CD.SCAM.XviD.MP3-SDL.avi.004
    http://www.filesonic.com/file/4020488754/999.Dam.2011.1CD.SCAM.XviD.MP3-SDL.avi.005
    http://www.filesonic.com/file/4020488654/999.Dam.2011.1CD.SCAM.XviD.MP3-SDL.avi.006
    http://www.filesonic.com/file/4020489104/999.Dam.2011.1CD.SCAM.XviD.MP3-SDL.avi.007
    Code:
    http://www.fileserve.com/file/3ckx8R2/999.Dam.2011.1CD.SCAM.XviD.MP3-SDL.avi.001
    http://www.fileserve.com/file/Ay5gxeJ/999.Dam.2011.1CD.SCAM.XviD.MP3-SDL.avi.002
    http://www.fileserve.com/file/7xNd7tx/999.Dam.2011.1CD.SCAM.XviD.MP3-SDL.avi.003
    http://www.fileserve.com/file/MfGxfmr/999.Dam.2011.1CD.SCAM.XviD.MP3-SDL.avi.004
    http://www.fileserve.com/file/VVEVy7b/999.Dam.2011.1CD.SCAM.XviD.MP3-SDL.avi.005
    http://www.fileserve.com/file/7HSsP9E/999.Dam.2011.1CD.SCAM.XviD.MP3-SDL.avi.006
    http://www.fileserve.com/file/aQVSWFs/999.Dam.2011.1CD.SCAM.XviD.MP3-SDL.avi.007

 

 

Posting Permissions

  • You may not post new threads
  • You may not post replies
  • You may not post attachments
  • You may not edit your posts
  •