Results 1 to 1 of 1
  1. #1
    Hot Member www.desirulez.net
    Join Date
    Feb 2011
    Location
    Bulletproof IP
    Posts
    1,189

    T

    Thumbs up Be-Careful (2011) - (Audio Cleaned) DVDScr - XviD - 1CDRip [TDT]

    Follow us on Social Media







    Be-Careful
    DVDScr - XviD - 1CDRip [TDT]
    (Audio Cleaned)
    (2011)






    Code:
    Format : AVI
    Format/Info : Audio Video Interleave
    File size : 686 MiB
    Duration : 1h 33mn
    Overall bit rate : 1 026 Kbps
    Writing application : MEncoder SVN-r30881(20100311-gcc4.3.3)
    Writing library : MPlayer
    
    Video
    ID : 0
    Format : MPEG-4 Visual
    Format profile : Advanced [email protected]
    Format settings, BVOP : 2
    Format settings, QPel : No
    Format settings, GMC : No warppoints
    Format settings, Matrix : Default (H.263)
    Codec ID : XVID
    Codec ID/Hint : XviD
    Duration : 1h 33mn
    Bit rate : 934 Kbps
    Width : 656 pixels
    Height : 272 pixels
    Display aspect ratio : 2.40:1
    Frame rate : 23.976 fps
    Color space : YUV
    Chroma subsampling : 4:2:0
    Bit depth : 8 bits
    Scan type : Progressive
    Compression mode : Lossy
    Bits/(Pixel*Frame) : 0.218
    Stream size : 625 MiB (91%)
    Writing library : XviD 1.2.1 (UTC 2008-12-04)
    
    Audio
    ID : 1
    Format : MPEG Audio
    Format version : Version 1
    Format profile : Layer 3
    Mode : Joint stereo
    Mode extension : MS Stereo
    Codec ID : 55
    Codec ID/Hint : MP3
    Duration : 1h 33mn
    Bit rate mode : Constant
    Bit rate : 80.0 Kbps
    Channel(s) : 2 channels
    Sampling rate : 44.1 KHz
    Compression mode : Lossy
    Delay relative to video : 42ms
    Stream size : 53.5 MiB (8%)
    Alignment : Aligned on interleaves
    Interleave, duration : 26 ms (0.63 video frame)
    Interleave, preload duration : 522 ms
    
    Thnxx & Credit To TD75














    All Credits Goes To Happy @ TDT (Thanks)

    Single File (Size: 686.44 MB)

    Code:
    http://www.fileserve.com/file/wjYVFdp/Be-Careful2011_-_AudioCleaned-DVDScr-XviD-1CDRip-TDT.avi
    or
    http://www.filesonic.com/file/4018086303/Be-Careful2011_-_AudioCleaned-DVDScr-XviD-1CDRip-TDT.avi
    If file removed...just reply here, i can Re-upload it any time

 

 

Posting Permissions

  • You may not post new threads
  • You may not post replies
  • You may not post attachments
  • You may not edit your posts
  •