Results 1 to 1 of 1
  1. #1
    THE GREAT ONE www.desirulez.net
    Join Date
    Mar 2011
    Location
    Hell
    Posts
    1,333

    T

    Talking Desi Boyz (2011) Xvid 1CD S-CAM Rip AC3 [TDT]

    Follow us on Social Media







    Desi Boyz (2011) Xvid 1CD S-CAM Rip AC3 [TDT]




    Code:
    Video
    ID : 0
    Format : MPEG-4 Visual
    Format profile : Advanced [email protected]
    Format settings, BVOP : 2
    Format settings, QPel : No
    Format settings, GMC : No warppoints
    Format settings, Matrix : Default (H.263)
    Muxing mode : Packed bitstream
    Codec ID : XVID
    Codec ID/Hint : XviD
    Duration : 1h 53mn
    Bit rate : 700 Kbps
    Width : 624 pixels
    Height : 272 pixels
    Display aspect ratio : 2.25:1
    Frame rate : 23.976 fps
    Color space : YUV
    Chroma subsampling : 4:2:0
    Bit depth : 8 bits
    Scan type : Progressive
    Compression mode : Lossy
    Bits/(Pixel*Frame) : 0.172
    Stream size : 569 MiB (84%)
    Writing library : XviD 1.2.1 (UTC 2008-12-04)
    
    Audio
    ID : 1
    Format : AC-3
    Format/Info : Audio Coding 3
    Mode extension : CM (complete main)
    Codec ID : 2000
    Duration : 1h 53mn
    Bit rate mode : Constant
    Bit rate : 128 Kbps
    Channel(s) : 2 channels
    Channel positions : Front: L R
    Sampling rate : 48.0 KHz
    Bit depth : 16 bits
    Compression mode : Lossy
    Stream size : 104 MiB (15%)
    Alignment : Split accross interleaves
    Interleave, duration : 42 ms (1.00 video frame)
    Interleave, preload duration : 500 ms










    NOTE: IF YOUR THINKING Of BUYING PREMIUM..PLEASE GET IT FROM FILESONIC [From my Links Below]

    Benefits of Buying Premium
    *Unlimited Downloads
    *Highspeed Downloads
    *Many more
    IF YOUR DOWNLOADING NORMALLY PLEASE USE OTHER HOSTS



    Code:
    FILESONIC
    http://www.filesonic.com/file/4016109533
    
    FILEJUNGLE
    http://www.filejungle.com/f/ruQkVp
    
    FILESERVE
    http://www.fileserve.com/file/Cm3vG8r


 

 

Posting Permissions

  • You may not post new threads
  • You may not post replies
  • You may not post attachments
  • You may not edit your posts
  •