Results 1 to 1 of 1
  1. #1
    dR Rockers www.desirulez.net
    Join Date
    Aug 2011
    Posts
    5,859

    T

    Default Kisna (2004) - 1.36GB - 2CD - DVDRip - X264 - Ac3 - [TDBB]

    Follow us on Social Media









    Kisna 2 CD DVD Rip X264 Ac3 Adi Jawed [TDBB]






    General
    Complete name : Kisna 2 CD DVD Rip X264 Ac3 Adi Jawed [TDBB]
    Format : Matroska
    Format version : Version 2
    File size : 1.36 GiB
    Duration : 2h 42mn
    Overall bit rate : 1 197 Kbps
    Ripper : Adi Jawed
    Source : DVD 9 TDBB

    Video
    ID : 1
    Format : AVC
    Format/Info : Advanced Video Codec
    Format profile : [email protected]
    Format settings, CABAC : Yes
    Format settings, ReFrames : 4 frames
    Muxing mode : Header stripping
    Codec ID : V_MPEG4/ISO/AVC
    Duration : 2h 42mn
    Bit rate : 1 068 Kbps
    Width : 720 pixels
    Height : 304 pixels
    Display aspect ratio : 2.35:1
    Frame rate : 29.970 fps
    Color space : YUV
    Chroma subsampling : 4:2:0
    Bit depth : 8 bits
    Scan type : Progressive
    Bits/(Pixel*Frame) : 0.163
    Stream size : 1.19 GiB (87%)

    Audio
    ID : 2
    Format : AC-3
    Format/Info : Audio Coding 3
    Mode extension : CM (complete main)
    Muxing mode : Header stripping
    Codec ID : A_AC3
    Duration : 2h 42mn
    Bit rate mode : Constant
    Bit rate : 128 Kbps
    Channel(s) : 6 channels
    Channel positions : Front: L C R, Side: L R, LFE
    Sampling rate : 48.0 KHz
    Bit depth : 16 bits
    Compression mode : Lossy
    Stream size : 149 MiB (11%)
















    SINGLE LINK


    Code:
    http://www.filesonic.com/file/4013172093/Kisna 2 CD DVD Rip X264 Ac3 Adi Jawed [TDBB].mkv
    Code:
    http://www.fileserve.com/file/dbb3g94/Kisna 2 CD DVD Rip X264 Ac3 Adi Jawed [TDBB].mkv

    Code:
    http://www.wupload.com/file/2573709812/Kisna 2 CD DVD Rip X264 Ac3 Adi Jawed [TDBB].mkv
    450MB LINKS

    Code:
    http://www.filesonic.com/file/4013022573/Kisna 2 CD DVD Rip X264 Ac3 Adi Jawed [TDBB].mkv.001
    http://www.filesonic.com/file/4013017093/Kisna 2 CD DVD Rip X264 Ac3 Adi Jawed [TDBB].mkv.002
    http://www.filesonic.com/file/4013016853/Kisna 2 CD DVD Rip X264 Ac3 Adi Jawed [TDBB].mkv.003
    http://www.filesonic.com/file/4013017903/Kisna 2 CD DVD Rip X264 Ac3 Adi Jawed [TDBB].mkv.004
    
    
    http://www.fileserve.com/file/MdTJG4z/Kisna 2 CD DVD Rip X264 Ac3 Adi Jawed [TDBB].mkv.001
    http://www.fileserve.com/file/X5a8ay5/Kisna 2 CD DVD Rip X264 Ac3 Adi Jawed [TDBB].mkv.002
    http://www.fileserve.com/file/z6DhHF6/Kisna 2 CD DVD Rip X264 Ac3 Adi Jawed [TDBB].mkv.003
    http://www.fileserve.com/file/2hfN5uE/Kisna 2 CD DVD Rip X264 Ac3 Adi Jawed [TDBB].mkv.004
    
    
    http://www.wupload.com/file/2573645797/Kisna 2 CD DVD Rip X264 Ac3 Adi Jawed [TDBB].mkv.001
    http://www.wupload.com/file/2573645802/Kisna 2 CD DVD Rip X264 Ac3 Adi Jawed [TDBB].mkv.002
    http://www.wupload.com/file/2573655207/Kisna 2 CD DVD Rip X264 Ac3 Adi Jawed [TDBB].mkv.003
    http://www.wupload.com/file/2573645662/Kisna 2 CD DVD Rip X264 Ac3 Adi Jawed [TDBB].mkv.004


 

 

Posting Permissions

  • You may not post new threads
  • You may not post replies
  • You may not post attachments
  • You may not edit your posts
  •