Results 1 to 1 of 1
  1. #1
    dR Rockers www.desirulez.net
    Join Date
    Aug 2011
    Posts
    5,859

    T

    Default Always Kabhi Kabhi [2011] - 2.20GB - 720p - 1/2DVDRip - x264 - AC3 6 - Dus

    Follow us on Social Media











    ------------------------------------------------------------------
    Always Kabhi Kabhi [2011] * 720p * 1/2 DVDRip * x264 * AC3 6 ** @ Dus Release **
    ------------------------------------------------------------------


    General

    Unique ID : 183036142567889228922084014614286856355 (0x89B37A91D409EA90A72867FD4E2A70A3)
    Complete name : E:\Ripped\Always Kabhi Kabhi [2011] 720p x264 AC3 6 KK4Ever @ Dus\Always Kabhi Kabhi [2011] 720p x264 AC3 6 KK4Ever @ Dus.mkv
    Format : Matroska
    Format version : Version 2
    File size : 2.21 GiB
    Duration : 2h 6mn
    Overall bit rate mode : Variable
    Overall bit rate : 2 494 Kbps
    Encoded date : UTC 2011-11-21 04:09:06
    Writing application : mkvmerge v4.9.1 ('Ich will') built on Jul 11 2011 23:53:15
    Writing library : libebml v1.2.1 + libmatroska v1.1.1

    Video

    ID : 1
    Format : AVC
    Format/Info : Advanced Video Codec
    Format profile : [email protected]
    Format settings, CABAC : Yes
    Format settings, ReFrames : 3 frames
    Codec ID : V_MPEG4/ISO/AVC
    Duration : 2h 6mn
    Bit rate mode : Variable
    Bit rate : 2 209 Kbps
    Maximum bit rate : 40.0 Mbps
    Width : 1 280 pixels
    Height : 544 pixels
    Display aspect ratio : 2.35:1
    Frame rate : 23.976 fps
    Color space : YUV
    Chroma subsampling : 4:2:0
    Bit depth : 8 bits
    Scan type : Progressive
    Bits/(Pixel*Frame) : 0.132
    Stream size : 1.94 GiB (88%)
    Writing library : x264 core 116 r2074 2641b9e
    Encoding settings : cabac=1 / ref=3 / deblock=1:-1:-1 / analyse=0x1:0x111 / me=hex / subme=5 / psy=1 / psy_rd=1.00:0.15 / mixed_ref=1 / me_range=16 / chroma_me=1 / trellis=0 / 8x8dct=0 / cqm=0 / deadzone=21,11 / fast_pskip=1 / chroma_qp_offset=0 / threads=3 / sliced_threads=0 / slices=4 / nr=0 / decimate=1 / interlaced=0 / bluray_compat=1 / constrained_intra=0 / bframes=3 / b_pyramid=1 / b_adapt=1 / b_bias=0 / direct=2 / weightb=1 / open_gop=1 / weightp=1 / keyint=24 / keyint_min=2 / scenecut=40 / intra_refresh=0 / rc_lookahead=24 / rc=abr / mbtree=1 / bitrate=2209 / ratetol=1.0 / qcomp=0.60 / qpmin=10 / qpmax=51 / qpstep=4 / vbv_maxrate=40000 / vbv_bufsize=30000 / nal_hrd=vbr / ip_ratio=1.40 / aq=1:1.00
    Language : English

    Audio

    ID : 2
    Format : AC-3
    Format/Info : Audio Coding 3
    Mode extension : CM (complete main)
    Codec ID : A_AC3
    Duration : 2h 6mn
    Bit rate mode : Constant
    Bit rate : 256 Kbps
    Channel(s) : 6 channels
    Channel positions : Front: L C R, Side: L R, LFE
    Sampling rate : 48.0 KHz
    Bit depth : 16 bits
    Compression mode : Lossy
    Stream size : 232 MiB (10%)












    NOTE: IF YOUR THINKING Of BUYING PREMIUM..PLEASE GET IT FROM FILESONIC[my link Below]
    IF YOUR DOWNLOADING NORMALLY PLEASE USE OTHER HOSTS


    SINGLE LINK

    Code:
    http://www.filesonic.com/file/3985578514/Always Kabhi Kabhi [2011] 720p x264 AC3 6 KK4Ever @ Dus.mkv
    Code:
    http://www.wupload.com/file/2537042087/Always Kabhi Kabhi [2011] 720p x264 AC3 6 KK4Ever @ Dus.mkv

    450MB LINKS
    Code:
    http://www.fileserve.com/file/vVjwf3p/Always Kabhi Kabhi [2011] 720p x264 AC3 6 KK4Ever @ Dus.mkv.001
    http://www.fileserve.com/file/SezeuRp/Always Kabhi Kabhi [2011] 720p x264 AC3 6 KK4Ever @ Dus.mkv.002
    http://www.fileserve.com/file/9ctsqF8/Always Kabhi Kabhi [2011] 720p x264 AC3 6 KK4Ever @ Dus.mkv.003
    http://www.fileserve.com/file/wuThF38/Always Kabhi Kabhi [2011] 720p x264 AC3 6 KK4Ever @ Dus.mkv.004
    http://www.fileserve.com/file/GUnEzBj/Always Kabhi Kabhi [2011] 720p x264 AC3 6 KK4Ever @ Dus.mkv.005
    
    
    http://www.filesonic.com/file/3985683184/Always Kabhi Kabhi [2011] 720p x264 AC3 6 KK4Ever @ Dus.mkv.001
    http://www.filesonic.com/file/3985657894/Always Kabhi Kabhi [2011] 720p x264 AC3 6 KK4Ever @ Dus.mkv.002
    http://www.filesonic.com/file/3985529074/Always Kabhi Kabhi [2011] 720p x264 AC3 6 KK4Ever @ Dus.mkv.003
    http://www.filesonic.com/file/3985482354/Always Kabhi Kabhi [2011] 720p x264 AC3 6 KK4Ever @ Dus.mkv.004
    http://www.filesonic.com/file/3985482324/Always Kabhi Kabhi [2011] 720p x264 AC3 6 KK4Ever @ Dus.mkv.005
    
    
    http://www.wupload.com/file/2537039462/Always Kabhi Kabhi [2011] 720p x264 AC3 6 KK4Ever @ Dus.mkv.001
    http://www.wupload.com/file/2537039467/Always Kabhi Kabhi [2011] 720p x264 AC3 6 KK4Ever @ Dus.mkv.002
    http://www.wupload.com/file/2537068052/Always Kabhi Kabhi [2011] 720p x264 AC3 6 KK4Ever @ Dus.mkv.003
    http://www.wupload.com/file/2537039457/Always Kabhi Kabhi [2011] 720p x264 AC3 6 KK4Ever @ Dus.mkv.004
    http://www.wupload.com/file/2537065077/Always Kabhi Kabhi [2011] 720p x264 AC3 6 KK4Ever @ Dus.mkv.005

 

 

Posting Permissions

  • You may not post new threads
  • You may not post replies
  • You may not post attachments
  • You may not edit your posts
  •