Results 1 to 1 of 1
  1. #1
    Super Member www.desirulez.net
    Join Date
    Aug 2011
    Posts
    385

    T

    Post 3 - Three (2011) - ( Why This Kolaveri ) - 720P - HDRip - x264 | Full song

    Follow us on Social Media







    3 - Three (2011) - ( Why This Kolaveri ) - 720P - HDRip - x264 | Full song

    * iNFO *

    Code:
    Video
    
    Format                                   : VP8
    Codec ID                                 : V_VP8
    Duration                                 : 4mn 8s
    Bit rate                                 : 1 358 Kbps
    Width                                    : 1 280 pixels
    Height                                   : 720 pixels
    Display aspect ratio                     : 16:9
    Frame rate                               : 1 000.000 fps
    Compression mode                         : Lossy
    Bits/(Pixel*Frame)                       : 0.001
    Stream size                              : 40.2 MiB (84%)
    Language                                 : English / English
    
    Audio
    
    Format                                   : Vorbis
    Format settings, Floor                   : 1
    Codec ID                                 : A_VORBIS
    Duration                                 : 4mn 8s
    Bit rate mode                            : Variable
    Bit rate                                 : 192 Kbps
    Channel(s)                               : 2 channels
    Sampling rate                            : 44.1 KHz
    Compression mode                         : Lossy
    Stream size                              : 5.68 MiB (12%)
    Language                                 : English
    * Screens *










    Download Links:

    Code:
    http://www.wupload.com/file/2527999997/Y_Th1s_K0lav3ri_Di___Full_Song_Promo_Video_in_HD.mp4
    Code:
    http://www.filesonic.com/file/3942437225/Y_Th1s_K0lav3ri_Di___Full_Song_Promo_Video_in_HD.mp4

 

 

Posting Permissions

  • You may not post new threads
  • You may not post replies
  • You may not post attachments
  • You may not edit your posts
  •