Results 1 to 1 of 1
  1. #1

    Default Bobbili Puli 1982 2CD DVD Rip .:: Th3 KinG :: GMH ::.

    Follow us on Social Media







    Media Information

    Disc I

    General

    Complete name : Bobbili Puli 2CD DVD Rip CD I.avi
    Format : AVI
    File size : 700 MiB
    Duration : 1h 18mn
    Overall bit rate : 1 244 Kbps

    Video

    Format : MPEG-4 Visual
    Duration : 1h 18mn
    Bit rate : 1 107 Kbps
    Width : 640 pixels
    Height : 352 pixels
    Display aspect ratio : 16:9
    Frame rate : 29.970 fps
    Resolution : 24 bits
    Colorimetry : 4:2:0
    Scan type : Progressive
    Bits/(Pixel*Frame) : 0.164
    Stream size : 622 MiB (89%)

    Audio

    Format : MPEG Audio
    Duration : 1h 18mn
    Bit rate mode : Variable
    Bit rate : 123 Kbps
    Nominal bit rate : 128 Kbps
    Channel(s) : 2 channels
    Sampling rate : 48.0 KHz
    Resolution : 16 bits
    Stream size : 69.2 MiB (10%)

    Disc I

    General

    Complete name : Bobbili Puli 2CD DVD Rip CD II.avi
    Format : AVI
    File size : 691 MiB
    Duration : 1h 27mn
    Overall bit rate : 1 107 Kbps

    Video

    Format : MPEG-4 Visual
    Duration : 1h 27mn
    Bit rate : 971 Kbps
    Width : 640 pixels
    Height : 352 pixels
    Display aspect ratio : 16:9
    Frame rate : 29.970 fps
    Resolution : 24 bits
    Colorimetry : 4:2:0
    Scan type : Progressive
    Bits/(Pixel*Frame) : 0.144
    Stream size : 606 MiB (88%)

    Audio

    Format : MPEG Audio
    Duration : 1h 27mn
    Bit rate mode : Variable
    Bit rate : 123 Kbps
    Channel(s) : 2 channels
    Sampling rate : 48.0 KHz
    Resolution : 16 bits
    Stream size : 76.6 MiB (11%)
    Screen Shots














    Download Links

    WUpload Links

    Code:
    http://www.wupload.com/file/2344399177
    http://www.wupload.com/file/2362608187
    http://www.wupload.com/file/2344401927
    http://www.wupload.com/file/2350955287
    http://www.wupload.com/file/2345234377
    or

    Code:
    http://www.wupload.com/file/2522370647
    http://www.wupload.com/file/2522370652
    http://www.wupload.com/file/2522370657
    http://www.wupload.com/file/2522370667
    http://www.wupload.com/file/2522370672
    Mirror Links

    Code:
    http://www.filesonic.com/file/3859836635
    http://www.filesonic.com/file/3859836985
    http://www.filesonic.com/file/3861031755
    http://www.filesonic.com/file/3860834355
    http://www.filesonic.com/file/3861206035

    Code:
    http://www.filejungle.com/f/KpPUNq
    http://www.filejungle.com/f/FN8saS
    http://www.filejungle.com/f/eZXTPR
    http://www.filejungle.com/f/DXJG4S
    http://www.filejungle.com/f/Adc3gx
    [code]

    http://www.fileserve.com/file/wgt5nUH
    http://www.fileserve.com/file/DF4yzGa
    http://www.fileserve.com/file/5BvhAPH
    http://www.fileserve.com/file/EmbPCAd
    http://www.fileserve.com/file/4bKjDz8

    [code]


    Code:
    http://filepost.com/files/95459e8f/GMH-M-T-76-Leader-BobbiliPuli.part1.rar/
    http://filepost.com/files/84mmb2mb/GMH-M-T-76-Leader-BobbiliPuli.part1.rev/
    http://filepost.com/files/cba7f6f3/GMH-M-T-76-Leader-BobbiliPuli.part2.rar/
    http://filepost.com/files/bc626cm4/GMH-M-T-76-Leader-BobbiliPuli.part3.rar/
    http://filepost.com/files/85e3bea3/GMH-M-T-76-Leader-BobbiliPuli.part4.rar/

 

 

Posting Permissions

  • You may not post new threads
  • You may not post replies
  • You may not post attachments
  • You may not edit your posts
  •