Results 1 to 1 of 1
  1. #1
    dR Rockers www.desirulez.net
    Join Date
    Aug 2011
    Posts
    5,859

    T

    Default Ram Teri Ganga Maili [1985] - 2.20GB - 720p - x264 - AC3 - DUS

    Follow us on Social Media








    ------------------------------------------------------------------
    Ram Teri Ganga Maili [1985] 720p * 1/2DVDRip * x264 * AC3 **KK4EVER @ DUS**
    ------------------------------------------------------------------

    General
    ----------
    Unique ID : 212874637418126756323796735901317154208 (0xA02629F2C191C18697190DC3AB7B45A0)
    Complete name : E:\Data\AZ-Data\Ram Teri Ganga Maili [1985] - 720p - x264 - AC3 - KK4EVER @ DUS\Ram Teri Ganga Maili [1985] - 720p - x264 - AC3 - KK4EVER @ DUS.mkv
    Format : Matroska
    Format version : Version 2
    File size : 2.20 GiB
    Duration : 2h 58mn
    Overall bit rate mode : Variable
    Overall bit rate : 1 761 Kbps
    Encoded date : UTC 2011-11-13 1854
    Writing application : mkvmerge v4.9.1 ('Ich will') built on Jul 11 2011 23:53:15
    Writing library : libebml v1.2.1 + libmatroska v1.1.1

    Video
    -------
    ID : 1
    Format : AVC
    Format/Info : Advanced Video Codec
    Format profile : [email protected]
    Format settings, CABAC : Yes
    Format settings, ReFrames : 3 frames
    Codec ID : V_MPEG4/ISO/AVC
    Duration : 2h 58mn
    Bit rate mode : Variable
    Bit rate : 1 493 Kbps
    Maximum bit rate : 40.0 Mbps
    Width : 1 280 pixels
    Height : 544 pixels
    Display aspect ratio : 2.35:1
    Frame rate : 23.976 fps
    Color space : YUV
    Chroma subsampling : 4:2:0
    Bit depth : 8 bits
    Scan type : Progressive
    Bits/(Pixel*Frame) : 0.089
    Stream size : 1.83 GiB (83%)
    Writing library : x264 core 116 r2074 2641b9e
    Encoding settings : cabac=1 / ref=3 / deblock=1:-1:-1 / analyse=0x1:0x111 / me=hex / subme=5 / psy=1 / psy_rd=1.00:0.15 / mixed_ref=1 / me_range=16 / chroma_me=1 / trellis=0 / 8x8dct=0 / cqm=0 / deadzone=21,11 / fast_pskip=1 / chroma_qp_offset=0 / threads=3 / sliced_threads=0 / slices=4 / nr=0 / decimate=1 / interlaced=0 / bluray_compat=1 / constrained_intra=0 / bframes=3 / b_pyramid=1 / b_adapt=1 / b_bias=0 / direct=2 / weightb=1 / open_gop=1 / weightp=1 / keyint=24 / keyint_min=2 / scenecut=40 / intra_refresh=0 / rc_lookahead=24 / rc=abr / mbtree=1 / bitrate=1493 / ratetol=1.0 / qcomp=0.60 / qpmin=10 / qpmax=51 / qpstep=4 / vbv_maxrate=40000 / vbv_bufsize=30000 / nal_hrd=vbr / ip_ratio=1.40 / aq=1:1.00
    Language : English

    Audio
    -------
    ID : 2
    Format : AC-3
    Format/Info : Audio Coding 3
    Mode extension : CM (complete main)
    Codec ID : A_AC3
    Duration : 2h 58mn
    Bit rate mode : Constant
    Bit rate : 256 Kbps
    Channel(s) : 6 channels
    Channel positions : Front: L C R, Side: L R, LFE
    Sampling rate : 48.0 KHz
    Bit depth : 16 bits
    Compression mode : Lossy
    Stream size : 327 MiB (15%)

































    SINGLE LINK

    Code:
    http://www.filesonic.com/file/3825477145/Ram Teri Ganga Maili [1985] - 720p - x264 - AC3 - KK4EVER @ DUS.mkv
    Code:
    http://www.wupload.com/file/2330137327/Ram Teri Ganga Maili [1985] - 720p - x264 - AC3 - KK4EVER @ DUS.mkv

    450MB LINKS

    Code:
    http://www.fileserve.com/file/wf5yMMK/Ram Teri Ganga Maili [1985] - 720p - x264 - AC3 - KK4EVER @ DUS.mkv.001
    http://www.fileserve.com/file/2USyBNk/Ram Teri Ganga Maili [1985] - 720p - x264 - AC3 - KK4EVER @ DUS.mkv.002
    http://www.fileserve.com/file/FRCZx2c/Ram Teri Ganga Maili [1985] - 720p - x264 - AC3 - KK4EVER @ DUS.mkv.003
    http://www.fileserve.com/file/P7hNUXS/Ram Teri Ganga Maili [1985] - 720p - x264 - AC3 - KK4EVER @ DUS.mkv.004
    http://www.fileserve.com/file/RzUm7BT/Ram Teri Ganga Maili [1985] - 720p - x264 - AC3 - KK4EVER @ DUS.mkv.005
    
    
    http://www.filesonic.com/file/3825418745/Ram Teri Ganga Maili [1985] - 720p - x264 - AC3 - KK4EVER @ DUS.mkv.001
    http://www.filesonic.com/file/3825418335/Ram Teri Ganga Maili [1985] - 720p - x264 - AC3 - KK4EVER @ DUS.mkv.002
    http://www.filesonic.com/file/3825418155/Ram Teri Ganga Maili [1985] - 720p - x264 - AC3 - KK4EVER @ DUS.mkv.003
    http://www.filesonic.com/file/3825419595/Ram Teri Ganga Maili [1985] - 720p - x264 - AC3 - KK4EVER @ DUS.mkv.004
    http://www.filesonic.com/file/3825419015/Ram Teri Ganga Maili [1985] - 720p - x264 - AC3 - KK4EVER @ DUS.mkv.005
    
    
    http://www.wupload.com/file/2330137067/Ram Teri Ganga Maili [1985] - 720p - x264 - AC3 - KK4EVER @ DUS.mkv.001
    http://www.wupload.com/file/2330137222/Ram Teri Ganga Maili [1985] - 720p - x264 - AC3 - KK4EVER @ DUS.mkv.002
    http://www.wupload.com/file/2330137152/Ram Teri Ganga Maili [1985] - 720p - x264 - AC3 - KK4EVER @ DUS.mkv.003
    http://www.wupload.com/file/2330137317/Ram Teri Ganga Maili [1985] - 720p - x264 - AC3 - KK4EVER @ DUS.mkv.004
    http://www.wupload.com/file/2330137322/Ram Teri Ganga Maili [1985] - 720p - x264 - AC3 - KK4EVER @ DUS.mkv.005

 

 

Posting Permissions

  • You may not post new threads
  • You may not post replies
  • You may not post attachments
  • You may not edit your posts
  •