Results 1 to 1 of 1
  1. #1
    dR Rockers www.desirulez.net
    Join Date
    Sep 2011
    Posts
    248

    T

    Default Rockstar (2011) - Xvid - 1/5 [New Source] DVD SCR (Audio cleaned) - Team ExD

    Follow us on Social Media








    Full Runtime : 2hr.35Mint


    Rockstar (2011) - Xvid - 1/5 [New Source] DVD SCR (Audio cleaned) - Team ExD








    Code:
    ormat                           : AVI
    Format/Info                      : Audio Video Interleave
    File size                        : 1.72 GiB
    Duration                         : 2h 35mn
    Overall bit rate                 : 1 579 Kbps
    
    Video
    ID                               : 0
    Format                           : MPEG-4 Visual
    Format profile                   : Advanced [email protected]
    Format settings, BVOP            : 2
    Format settings, QPel            : No
    Format settings, GMC             : No warppoints
    Format settings, Matrix          : Default (H.263)
    Codec ID                         : XVID
    Codec ID/Hint                    : XviD
    Duration                         : 2h 35mn
    Bit rate                         : 1 489 Kbps
    Width                            : 640 pixels
    Height                           : 256 pixels
    Display aspect ratio             : 2.500
    Frame rate                       : 25.000 fps
    Color space                      : YUV
    Chroma subsampling               : 4:2:0
    Bit depth                        : 8 bits
    Scan type                        : Progressive
    Compression mode                 : Lossy
    Bits/(Pixel*Frame)               : 0.363
    Stream size                      : 1.62 GiB (94%)
    Writing library                  : XviD 1.2.1 (UTC 2008-12-04)
    
    Audio
    ID                               : 1
    Format                           : MPEG Audio
    Format version                   : Version 1
    Format profile                   : Layer 3
    Codec ID                         : 55
    Codec ID/Hint                    : MP3
    Duration                         : 2h 35mn
    Bit rate mode                    : Constant
    Bit rate                         : 80.0 Kbps
    Channel(s)                       : 2 channels
    Sampling rate                    : 32.0 KHz
    Compression mode                 : Lossy
    Stream size                      : 89.2 MiB (5%)
    Alignment                        : Split accross interleaves
    Interleave, duration             : 36 ms (0.90 video frame)

















    Code:
    http://www.fileserve.com/file/smkekUA/Rockstar (2011) - Xvid - 15 [New Source] DVD SCR (Audio cleaned)-[ExDe$].avi.001
    http://www.fileserve.com/file/JHgWTRg/Rockstar (2011) - Xvid - 15 [New Source] DVD SCR (Audio cleaned)-[ExDe$].avi.002
    http://www.fileserve.com/file/YeNmdDW/Rockstar (2011) - Xvid - 15 [New Source] DVD SCR (Audio cleaned)-[ExDe$].avi.003
    http://www.fileserve.com/file/ysvxJ49/Rockstar (2011) - Xvid - 15 [New Source] DVD SCR (Audio cleaned)-[ExDe$].avi.004

    Code:
    http://www.filesonic.com/file/3729935565
    http://www.filesonic.com/file/3729935735
    http://www.filesonic.com/file/3729935985
    http://www.filesonic.com/file/3729935965





 

 

Posting Permissions

  • You may not post new threads
  • You may not post replies
  • You may not post attachments
  • You may not edit your posts
  •