Results 1 to 1 of 1
  1. #1
    dR Rockers
    Join Date
    Aug 2011

    Default Gangaajal (2003) - 1.60GB - DVDRip - XviD - penzy

    Follow us on Social Media

    Superintendent of Police (SP) Amit Kumar is assigned the task of taking charge of Tejpur Police Headquarters, to which he agrees, and he and his wife, Anuradha, re-locate. Amit is appalled at the manner in which the police and it's officers conduct themselves. Corruption, inefficiency, bribery, nepotism, favoritism, and crime, especially at the hands of the police themselves, seem to be the rule, rather than the exception. His investigation into this nexus pits him against local politician, Sadhu Yadav, who is very influential, and can have Amit dismissed/transferred just by making a phone call to the Home Minister. Amit is undeterred by this, and arrests his brother, Sunder Yadav, and his men. While Sunder is released soon, some police officers, get frustrated with the system, and pour acid into the eyes of two of Yadav's men, blinding them. A hue and cry is raised by the media, crime almost comes to a standstill, and the police are regarded with respect. A official inquiry is commissioned, Amit is suspended and ordered to appear before the inquiry officials, where he must acknowledge that the crime did occur, and put the onus on the ones responsible, or simply deny any knowledge. Based on a true story in Bhagalpur, where 30 or so prisoners were blinded by prison guards and police in the 1980s in India.


    Media info:

    Complete name : Gangaajal[2003].avi
    Format : AVI
    Format/Info : Audio Video Interleave
    Format profile : OpenDML
    File size : 1.59 GiB
    Duration : 2h 37mn
    Overall bit rate : 1 448 Kbps
    Writing application : AVI-Mux GUI, Feb 16 201019:42:50

    ID : 0
    Format : MPEG-4 Visual
    Format profile : Advanced [email protected]
    Format settings, BVOP : Yes
    Format settings, QPel : Yes
    Format settings, GMC : No warppoints
    Format settings, Matrix : Default (H.263)
    Codec ID : XVID
    Codec ID/Hint : XviD
    Duration : 2h 37mn
    Bit rate : 1 187 Kbps
    Width : 704 pixels
    Height : 320 pixels
    Display aspect ratio : 2.2:1
    Frame rate : 23.976 fps
    Color space : YUV
    Chroma subsampling : 4:2:0
    Bit depth : 8 bits
    Scan type : Progressive
    Compression mode : Lossy
    Bits/(Pixel*Frame) : 0.220
    Stream size : 1.30 GiB (82%)
    Writing library : XviD 1.2.1 (UTC 2008-12-04)

    ID : 1
    Format : AC-3
    Format/Info : Audio Coding 3
    Mode extension : CM (complete main)
    Codec ID : 2000
    Duration : 2h 37mn
    Bit rate mode : Constant
    Bit rate : 256 Kbps
    Channel(s) : 6 channels
    Channel positions : Front: L C R, Side: L R, LFE
    Sampling rate : 48.0 KHz
    Bit depth : 16 bits
    Compression mode : Lossy
    Stream size : 288 MiB (18%)
    Alignment : Aligned on interleaves
    Interleave, duration : 64 ms (1.53 video frames)
    Interleave, preload duration : 192 ms
    Title : 256 kb



    450MB LINKS




Posting Permissions

  • You may not post new threads
  • You may not post replies
  • You may not post attachments
  • You may not edit your posts