Results 1 to 1 of 1
  1. #1
    dR Rockers www.desirulez.net
    Join Date
    Sep 2011
    Posts
    248

    T

    Post Rockstar (2011) Pre - DvD - 1CD - Rip - AVC - x264 - AC3 [ExD XMR]

    Follow us on Social Media












    Rockstar (2011)




    Code:
    Ripper                           : Rahul
    Complete name                    : Rockstar (2011) 
    Format                           : Matroska
    File size                        : 586 MiB
    Duration                         : 2h 22mn
    Overall bit rate                 : 576 Kbps
    Encoded date                     : UTC 2011-11-13 18:04:47
    Writing application              : mkvmerge v4.3.0 ('Escape from the 
    Video
    ID                               : 1
    Format                           : AVC
    Format/Info                      : Advanced Video Codec
    Format profile                   : [email protected]
    Format settings, CABAC           : Yes
    Format settings, ReFrames        : 4 frames
    Muxing mode                      : Header stripping
    Codec ID                         : V_MPEG4/ISO/AVC
    Duration                         : 2h 22mn
    Bit rate                         : 447 Kbps
    Width                            : 624 pixels
    Height                           : 240 pixels
    Display aspect ratio             : 2.600
    Frame rate                       : 23.976 fps
    Color space                      : YUV
    Chroma subsampling               : 4:2:0
    Bit depth                        : 8 bits
    Scan type                        : Progressive
    Bits/(Pixel*Frame)               : 0.124
    Stream size                      : 444 MiB (76%)
    Writing library                  : x264 core 116 r2074 2641b9e
    
    
    Audio
    ID                               : 2
    Format                           : AC-3
    Format/Info                      : Audio Coding 3
    Mode extension                   : CM (complete main)
    Muxing mode                      : Header stripping
    Codec ID                         : A_AC3
    Duration                         : 2h 22mn
    Bit rate mode                    : Constant
    Bit rate                         : 128 Kbps
    Channel(s)                       : 2 channels
    Channel positions                : Front: L R
    Sampling rate                    : 32.0 KHz
    Bit depth                        : 16 bits
    Compression mode                 : Lossy
    Stream size                      : 130 MiB (22%)

    Cast





















    Code:
    http://www.fileserve.com/file/ATQA7mY

    Code:
    http://www.filesonic.com/file/3508934435

    Code:
    http://www.wupload.com/file/2300681527



 

 

Posting Permissions

  • You may not post new threads
  • You may not post replies
  • You may not post attachments
  • You may not edit your posts
  •