Results 1 to 1 of 1
  1. #1

    Thumbs up Ye Dillagi (1994) Untouched DVD9 NTSC - DrC

    Follow us on Social Media








    Format : MPEG-PS
    Overall bit rate : 4 990 Kbps

    Video
    ID : 224 (0xE0)
    Format : MPEG Video
    Format version : Version 2
    Format profile : [email protected]
    Format settings, BVOP : No
    Format settings, Matrix : Default
    Format settings, GOP : M=1, N=16
    Duration : 5mn 12s
    Bit rate : 4 500 Kbps
    Width : 704 pixels
    Height : 480 pixels
    Display aspect ratio : 16:9
    Frame rate : 29.970 fps
    Standard : NTSC
    Color space : YUV
    Chroma subsampling : 4:2:0
    Bit depth : 8 bits
    Scan type : Interlaced
    Scan order : Top Field First
    Compression mode : Lossy
    Bits/(Pixel*Frame) : 0.444
    Stream size : 168 MiB (90%)

    Audio
    ID : 189 (0xBD)-128 (0x80)
    Format : AC-3
    Format/Info : Audio Coding 3
    Mode extension : CM (complete main)
    Muxing mode : DVD-Video
    Bit rate mode : Constant
    Bit rate : 384 Kbps
    Channel(s) : 6 channels
    Channel positions : Front: L C R, Side: L R, LFE
    Sampling rate : 48.0 KHz
    Bit depth : 16 bits
    Compression mode : Lossy
    Delay relative to video : -207ms
    Stream size : 14.3 MiB (8%)

















    Code:
    http://www.filesonic.com/file/3486052255/AMP-Ye.Dillagi.1994.Untouched.DVD9.NTSC.DRC.part01.rar
    http://www.filesonic.com/file/3486052315/AMP-Ye.Dillagi.1994.Untouched.DVD9.NTSC.DRC.part02.rar
    http://www.filesonic.com/file/3486056175/AMP-Ye.Dillagi.1994.Untouched.DVD9.NTSC.DRC.part03.rar
    http://www.filesonic.com/file/3486063445/AMP-Ye.Dillagi.1994.Untouched.DVD9.NTSC.DRC.part04.rar
    http://www.filesonic.com/file/3486063525/AMP-Ye.Dillagi.1994.Untouched.DVD9.NTSC.DRC.part05.rar
    http://www.filesonic.com/file/3486073065/AMP-Ye.Dillagi.1994.Untouched.DVD9.NTSC.DRC.part06.rar
    http://www.filesonic.com/file/3486073095/AMP-Ye.Dillagi.1994.Untouched.DVD9.NTSC.DRC.part07.rar
    http://www.filesonic.com/file/3486073125/AMP-Ye.Dillagi.1994.Untouched.DVD9.NTSC.DRC.part08.rar
    http://www.filesonic.com/file/3486073135/AMP-Ye.Dillagi.1994.Untouched.DVD9.NTSC.DRC.part09.rar

    Code:
    http://www.fileserve.com/file/3rj4evZ/AMP-Ye.Dillagi.1994.Untouched.DVD9.NTSC.DRC.part01.rar
    http://www.fileserve.com/file/GFt7GK5/AMP-Ye.Dillagi.1994.Untouched.DVD9.NTSC.DRC.part02.rar
    http://www.fileserve.com/file/QCkgS6N/AMP-Ye.Dillagi.1994.Untouched.DVD9.NTSC.DRC.part03.rar
    http://www.fileserve.com/file/Qh6Vn9D/AMP-Ye.Dillagi.1994.Untouched.DVD9.NTSC.DRC.part04.rar
    http://www.fileserve.com/file/uZunTY7/AMP-Ye.Dillagi.1994.Untouched.DVD9.NTSC.DRC.part05.rar
    http://www.fileserve.com/file/xmxHY4b/AMP-Ye.Dillagi.1994.Untouched.DVD9.NTSC.DRC.part06.rar
    http://www.fileserve.com/file/eFhZZBp/AMP-Ye.Dillagi.1994.Untouched.DVD9.NTSC.DRC.part07.rar
    http://www.fileserve.com/file/SAc8N26/AMP-Ye.Dillagi.1994.Untouched.DVD9.NTSC.DRC.part08.rar
    http://www.fileserve.com/file/re7gYKw/AMP-Ye.Dillagi.1994.Untouched.DVD9.NTSC.DRC.part09.rar

    Code:
    http://www.wupload.com/file/2262179507/AMP-Ye.Dillagi.1994.Untouched.DVD9.NTSC.DRC.part01.rar
    http://www.wupload.com/file/2262178457/AMP-Ye.Dillagi.1994.Untouched.DVD9.NTSC.DRC.part02.rar
    http://www.wupload.com/file/2262179767/AMP-Ye.Dillagi.1994.Untouched.DVD9.NTSC.DRC.part03.rar
    http://www.wupload.com/file/2262181702/AMP-Ye.Dillagi.1994.Untouched.DVD9.NTSC.DRC.part04.rar
    http://www.wupload.com/file/2262180452/AMP-Ye.Dillagi.1994.Untouched.DVD9.NTSC.DRC.part05.rar
    http://www.wupload.com/file/2262181682/AMP-Ye.Dillagi.1994.Untouched.DVD9.NTSC.DRC.part06.rar
    http://www.wupload.com/file/2262182722/AMP-Ye.Dillagi.1994.Untouched.DVD9.NTSC.DRC.part07.rar
    http://www.wupload.com/file/2262182707/AMP-Ye.Dillagi.1994.Untouched.DVD9.NTSC.DRC.part08.rar
    http://www.wupload.com/file/2262179797/AMP-Ye.Dillagi.1994.Untouched.DVD9.NTSC.DRC.part09.rar
    Man is still the most extraordinary computer of all.




 

 

Posting Permissions

  • You may not post new threads
  • You may not post replies
  • You may not post attachments
  • You may not edit your posts
  •