Results 1 to 1 of 1
  1. #1
    dR Dazzler www.desirulez.net
    Join Date
    Mar 2009
    Posts
    1,518

    T

    Default Marquez.vs.Pacquiao.III.2011.ShowTime.WS.DSR.XviD-SS

    Follow us on Social Media









    Marquez.vs.Pacquiao.III.2011.ShowTime.WS.DSR.XviD-SS

    Code:
    General Information
    Format : AVI
    Format/Info : Audio Video Interleave
    File size : 956 MiB
    Duration : 1h 36mn
    Overall bit rate : 1 382 Kbps
    Writing library : MPlayer
    Video
    ID : 0
    Format : MPEG-4 Visual
    Format profile : Advanced [email protected]
    Format settings, BVOP : 2
    Format settings, QPel : No
    Format settings, GMC : No warppoints
    Format settings, Matrix : Default (H.263)
    Muxing mode : Packed bitstream
    Codec ID : XVID
    Codec ID/Hint : XviD
    Duration : 1h 36mn
    Bit rate : 1 288 Kbps
    Width : 640 pixels
    Height : 352 pixels
    Display aspect ratio : 16:9
    Frame rate : 25.000 fps
    Color space : YUV
    Chroma subsampling : 4:2:0
    Bit depth : 8 bits
    Scan type : Progressive
    Compression mode : Lossy
    Bits/(Pixel*Frame) : 0.229
    Stream size : 890 MiB (93%)
    Writing library : XviD 64
    Audio
    ID : 1
    Format : MPEG Audio
    Format version : Version 1
    Format profile : Layer 3
    Mode : Joint stereo
    Mode extension : MS Stereo
    Codec ID : 55
    Codec ID/Hint : MP3
    Duration : 1h 36mn
    Bit rate mode : Variable
    Bit rate : 81.2 Kbps
    Minimum bit rate : 32.0 Kbps
    Channel(s) : 2 channels
    Sampling rate : 48.0 KHz
    Compression mode : Lossy
    Stream size : 56.2 MiB (6%)
    Alignment : Aligned on interleaves
    Interleave, duration : 24 ms (0.60 video frame)
    Interleave, preload duration : 470 ms
    Writing library : LAME3.98r
    Encoding settings : -m j -V 5 -q 2 -lowpass 16.5 --vbr-new -b 32

    Code:
    FileSonic Link:-
    http://www.filesonic.com/file/3480109155/Marquez.vs.Pacquiao.III.2011.ShowTime.WS.DSR.XviD-SS.avi
    
    Wupload Link:-
    http://www.wupload.com/file/2261751367/Marquez.vs.Pacquiao.III.2011.ShowTime.WS.DSR.XviD-SS.avi
    
    FileServe Link:-
    http://www.fileserve.com/file/zKfsjQ4/Marquez.vs.Pacquiao.III.2011.ShowTime.WS.DSR.XviD-SS.avi

 

 

Posting Permissions

  • You may not post new threads
  • You may not post replies
  • You may not post attachments
  • You may not edit your posts
  •