Results 1 to 1 of 1
  1. #1
    Coolbie www.desirulez.net
    Join Date
    Oct 2011
    Location
    Gujarat
    Posts
    589

    T

    Default Rockstar(2011) 1CD Super Cam XviD Mp3 *TEAM NeXtGeN*

    Follow us on Social Media







    Rockstar(2011) 1CD Super Cam XviD Mp3 *TEAM NeXtGeN*





    Code:
    Format                           : AVI
    Format/Info                      : Audio Video Interleave
    File size                        : 610 MiB
    Duration                         : 2h 30mn
    Overall bit rate                 : 567 Kbps
    Writing application              : Lavf52.39.1
    Writing library                  : VirtualDub build 32842/release
    
    Video
    ID                               : 0
    Format                           : MPEG-4 Visual
    Format profile                   : Advanced [email protected]
    Format settings, BVOP            : 1
    Format settings, QPel            : No
    Format settings, GMC             : No warppoints
    Format settings, Matrix          : Custom
    Codec ID                         : XVID
    Codec ID/Hint                    : XviD
    Duration                         : 2h 30mn
    Bit rate                         : 491 Kbps
    Width                            : 580 pixels
    Height                           : 240 pixels
    Display aspect ratio             : 2.40:1
    Frame rate                       : 23.976 fps
    Color space                      : YUV
    Chroma subsampling               : 4:2:0
    Bit depth                        : 8 bits
    Scan type                        : Progressive
    Compression mode                 : Lossy
    Bits/(Pixel*Frame)               : 0.147
    Stream size                      : 528 MiB (87%)
    Writing library                  : XviD 64
    
    Audio
    ID                               : 1
    Format                           : MPEG Audio
    Format version                   : Version 1
    Format profile                   : Layer 3
    Mode                             : Joint stereo
    Mode extension                   : MS Stereo
    Codec ID                         : 55
    Codec ID/Hint                    : MP3
    Duration                         : 2h 30mn
    Bit rate mode                    : Constant
    Bit rate                         : 64.0 Kbps
    Channel(s)                       : 2 channels
    Sampling rate                    : 44.1 KHz
    Compression mode                 : Lossy
    Stream size                      : 68.8 MiB (11%)
    Alignment                        : Aligned on interleaves
    Interleave, duration             : 26 ms (0.63 video frame)
    Interleave, preload duration     : 522 ms














    Code:
    http://www.filesonic.com/file/3430172714/Rockstar_(2011)_1CD_Super_Cam_XviD_MP3.avi
    http://www.filefactory.com/file/cfe9918/n/Rockstar_(2011)_1CD_Super_Cam_XviD_MP3.avi
    http://www.fileserve.com/file/7JN3thy
    http://www.wupload.com/file/2206699537/Rockstar_(2011)_1CD_Super_Cam_XviD_MP3.avi
    http://filekeen.com/f7jg9gmio00n
    WATCH ONLINE MOVIE HERE

    videobb - Free Video Hosting - Your #1 Video Site - Rockstar_(2011)_1CD_Super_Cam_XviD_MP3

    VideoZer - Fast, Free and Reliable Video Hosting - Miley.Naa.Miley.Hum.2011.1CD.DVDScr.x264.Esubs-DDR
    Last edited by Neal007; 11-12-2011 at 08:55 AM.
    http://www.desirulez.net/images/styles/HighlightBlue/style/logo.gif

 

 

Posting Permissions

  • You may not post new threads
  • You may not post replies
  • You may not post attachments
  • You may not edit your posts
  •