Results 1 to 1 of 1
  1. #1
    Hot Member www.desirulez.net
    Join Date
    Feb 2011
    Location
    Bulletproof IP
    Posts
    1,189

    T

    Thumbs up Loot (2011) - 1CD DVDScr - Rip - XviD - AC3 - ESubs [TDT]

    Follow us on Social Media







    LOOT
    1CD DVDScr - Rip - XviD - AC3 - ESubs [TDT]
    (2011)




    Code:
    General
    Complete name : Loot2011_-_1CD-DVDScr-Rip-XviD-AC3-TDT.avi
    IMDB : www.imdb.com/title/tt0847180/
    Format : AVI
    Format/Info : Audio Video Interleave
    File size : 700 MiB
    Duration : 1h 49mn
    Overall bit rate : 894 Kbps
    Writing application : VirtualDubMod 1.5.10.3 | www.virtualdub-fr.org || (build 2550/release)
    Writing library : VirtualDubMod build 2550/release
    Source : DvD ScR @ Team ICTV .. Thnx A LOT
    Ripper : KINGFISHER [~TDT~].
    Code:
    Video
    ID : 0
    Format : MPEG-4 Visual
    Format profile : Advanced [email protected]
    Format settings, BVOP : 1
    Format settings, QPel : No
    Format settings, GMC : No warppoints
    Format settings, Matrix : Default (H.263)
    Muxing mode : Packed bitstream
    Codec ID : XVID
    Codec ID/Hint : XviD
    Duration : 1h 49mn
    Bit rate : 757 Kbps
    Width : 640 pixels
    Height : 288 pixels
    Display aspect ratio : 2.222
    Frame rate : 23.976 fps
    Color space : YUV
    Chroma subsampling : 4:2:0
    Bit depth : 8 bits
    Scan type : Progressive
    Compression mode : Lossy
    Bits/(Pixel*Frame) : 0.171
    Stream size : 593 MiB (85%)
    Writing library : XviD 1.2.1 (UTC 2008-12-04)
    
    Audio
    ID : 1
    Format : AC-3
    Format/Info : Audio Coding 3
    Mode extension : CM (complete main)
    Codec ID : 2000
    Duration : 1h 49mn
    Bit rate mode : Constant
    Bit rate : 128 Kbps
    Channel(s) : 2 channels
    Channel positions : Front: L R
    Sampling rate : 48.0 KHz
    Bit depth : 16 bits
    Compression mode : Lossy
    Stream size : 100 MiB (14%)
    Alignment : Split accross interleaves
    Interleave, duration : 42 ms (1.00 video frame)
    Interleave, preload duration : 500 ms














    All Credits Goes To Team TDT (Thanks)

    Single File (Size: 700.19 MB)

    Code:
    http://www.fileserve.com/file/CwsV3H7/Loot2011_-_1CD-DVDScr-Rip-XviD-AC3-TDT.avi
    or
    http://www.filesonic.com/file/3297906594/Loot2011_-_1CD-DVDScr-Rip-XviD-AC3-TDT.avi
    or
    http://www.wupload.com/file/2112287692/Loot2011_-_1CD-DVDScr-Rip-XviD-AC3-TDT.avi
    English Subtitles

    Code:
    http://www.fileserve.com/file/9V7Hw7j/Loot2011_-_1CD-DVDScr-Rip-XviD-AC3-TDT.srt
    or
    http://www.filesonic.com/file/3297918095/Loot2011_-_1CD-DVDScr-Rip-XviD-AC3-TDT.srt
    or
    http://www.wupload.com/file/2099700022/Loot2011_-_1CD-DVDScr-Rip-XviD-AC3-TDT.srt
    If file removed...just reply here, i can Re-upload it any time

 

 

Posting Permissions

  • You may not post new threads
  • You may not post replies
  • You may not post attachments
  • You may not edit your posts
  •