Results 1 to 2 of 2
  1. #1
    dR Contributor www.desirulez.net
    Join Date
    Jan 2011
    Posts
    2,299

    T

    Smile Bodyguard (2011) - 1/3 DVDRip - 720p - x264 - AC3 - 6ch - [TDBB]

    Follow us on Social Media









    Format : Matroska
    Format version : Version 2
    File size : 1.45 GiB
    Duration : 2h 10mn
    Overall bit rate : 1 594 Kbps
    Encoded date : UTC 2011-11-03 17:23:04
    Writing application : mkvmerge v4.9.1 ('Ich will') built on Jul 11 2011 23:53:15
    Writing library : libebml v1.2.1 + libmatroska v1.1.1
    Ripper : Pakistani Bacha

    Video
    ID : 1
    Format : AVC
    Format/Info : Advanced Video Codec
    Format profile : [email protected]
    Format settings, CABAC : Yes
    Format settings, ReFrames : 4 frames
    Format settings, GOP : N=1
    Codec ID : V_MPEG4/ISO/AVC
    Duration : 2h 10mn
    Bit rate : 1 464 Kbps
    Width : 1 280 pixels
    Height : 544 pixels
    Display aspect ratio : 2.35:1
    Frame rate : 29.970 fps
    Color space : YUV
    Chroma subsampling : 4:2:0
    Bit depth : 8 bits
    Scan type : Progressive
    Bits/(Pixel*Frame) : 0.070
    Stream size : 1.31 GiB (90%)
    Writing library : x264 core 116 r2074 2641b9e
    Language : Hindi

    Audio
    ID : 2
    Format : AC-3
    Format/Info : Audio Coding 3
    Mode extension : CM (complete main)
    Codec ID : A_AC3
    Duration : 2h 10mn
    Bit rate mode : Constant
    Bit rate : 128 Kbps
    Channel(s) : 6 channels
    Channel positions : Front: L C R, Side: L R, LFE
    Sampling rate : 48.0 KHz
    Bit depth : 16 bits
    Compression mode : Lossy
    Stream size : 120 MiB (8%)
    Language : Hindi

    Text
    ID : 3
    Format : UTF-8
    Codec ID : S_TEXT/UTF8
    Codec ID/Info : UTF-8 Plain Text






    Credits to "TDBB"



    Code:
    http://www.fileserve.com/file/BgkuAMB


  2. #2
    Senior Member www.desirulez.net
    Join Date
    Apr 2011
    Posts
    106

    T

    Default

    thanks 4 dvd version

 

 

Posting Permissions

  • You may not post new threads
  • You may not post replies
  • You may not post attachments
  • You may not edit your posts
  •