Results 1 to 1 of 1
  1. #1
    dR Dazzler www.desirulez.net
    Join Date
    Mar 2009
    Posts
    1,518

    T

    Default UFC.138.PPV.WS.DSR.x264-SS

    Follow us on Social Media










    UFC.138.PPV.WS.DSR.x264-SS


    Code:
    General Information
    Format : Matroska
    Format version : Version 2
    File size : 1.30 GiB
    Duration : 2h 36mn
    Overall bit rate : 1 187 Kbps
    Encoded date : UTC 2011-11-05 22:51:22
    Writing application : mkvmerge v4.9.1 ('Ich will') built on Jul 11 2011 23:53:15
    Writing library : libebml v1.2.1 + libmatroska v1.1.1
    Video
    ID : 1
    Format : AVC
    Format/Info : Advanced Video Codec
    Format profile : [email protected]
    Format settings, CABAC : Yes
    Format settings, ReFrames : 4 frames
    Muxing mode : Header stripping
    Codec ID : V_MPEG4/ISO/AVC
    Duration : 2h 36mn
    Bit rate : 1 071 Kbps
    Width : 640 pixels
    Height : 352 pixels
    Display aspect ratio : 16:9
    Frame rate : 25.000 fps
    Color space : YUV
    Chroma subsampling : 4:2:0
    Bit depth : 8 bits
    Scan type : Progressive
    Bits/(Pixel*Frame) : 0.190
    Stream size : 1.17 GiB (90%)
    Writing library : x264 core 105 r1724 b02df7b
    
    Audio
    ID : 2
    Format : MPEG Audio
    Format version : Version 1
    Format profile : Layer 3
    Mode : Joint stereo
    Mode extension : MS Stereo
    Muxing mode : Header stripping
    Codec ID : A_MPEG/L3
    Codec ID/Hint : MP3
    Duration : 18mn 6s
    Bit rate mode : Variable
    Bit rate : 92.0 Kbps
    Minimum bit rate : 32.0 Kbps
    Channel(s) : 2 channels
    Sampling rate : 48.0 KHz
    Compression mode : Lossy
    Stream size : 11.9 MiB (1%)
    Writing library : LAME3.98r
    Encoding settings : -m j -V 5 -q 2 -lowpass 16.5 --vbr-new -b 32
    Language : English

    Code:
    FileSonic Link:-
    http://www.filesonic.com/file/3051410185/UFC.138.PPV.WS.DSR.part1.rar
    http://www.filesonic.com/file/3051440125/UFC.138.PPV.WS.DSR.part2.rar
    
    
    Wupload Link:-
    http://www.wupload.com/file/1932161232/UFC.138.PPV.WS.DSR.part1.rar
    http://www.wupload.com/file/1932161187/UFC.138.PPV.WS.DSR.part2.rar
    
    
    FileServe Link:-
    http://www.fileserve.com/file/wa8nSNz/UFC.138.PPV.WS.DSR.part1.rar
    http://www.fileserve.com/file/VhAGFRA/UFC.138.PPV.WS.DSR.part2.rar

 

 

Posting Permissions

  • You may not post new threads
  • You may not post replies
  • You may not post attachments
  • You may not edit your posts
  •