Results 1 to 1 of 1
  1. #1
    Coolbie www.desirulez.net
    Join Date
    Oct 2011
    Location
    Gujarat
    Posts
    589

    T

    Default LooT (2011) 450MB Super Cam Rip XviD Mp3 *TEAM NeXtGeN Exclusive*

    Follow us on Social Media








    LooT (2011) 450MB Super Cam Rip XviD Mp3 *TEAM NeXtGeN Exclusive*




    Code:
    Format                           : AVI
    Format/Info                      : Audio Video Interleave
    File size                        : 431 MiB
    Duration                         : 1h 43mn
    Overall bit rate                 : 584 Kbps
    Writing library                  : VirtualDub build 32842/release
    
    Video
    ID                               : 0
    Format                           : MPEG-4 Visual
    Format profile                   : Advanced [email protected]
    Format settings, BVOP            : 1
    Format settings, QPel            : No
    Format settings, GMC             : No warppoints
    Format settings, Matrix          : Custom
    Codec ID                         : XVID
    Codec ID/Hint                    : XviD
    Duration                         : 1h 43mn
    Bit rate                         : 415 Kbps
    Width                            : 602 pixels
    Height                           : 272 pixels
    Display aspect ratio             : 2.2:1
    Frame rate                       : 23.976 fps
    Color space                      : YUV
    Chroma subsampling               : 4:2:0
    Bit depth                        : 8 bits
    Scan type                        : Progressive
    Compression mode                 : Lossy
    Bits/(Pixel*Frame)               : 0.106
    Stream size                      : 306 MiB (71%)
    Writing library                  : XviD 64
    
    Audio
    ID                               : 1
    Format                           : MPEG Audio
    Format version                   : Version 1
    Format profile                   : Layer 3
    Mode                             : Joint stereo
    Mode extension                   : MS Stereo
    Codec ID                         : 55
    Codec ID/Hint                    : MP3
    Duration                         : 1h 43mn
    Bit rate mode                    : Constant
    Bit rate                         : 160 Kbps
    Channel(s)                       : 2 channels
    Sampling rate                    : 44.1 KHz
    Compression mode                 : Lossy
    Stream size                      : 118 MiB (27%)
    Alignment                        : Split accross interleaves
    Interleave, duration             : 42 ms (1.00 video frame)
    Interleave, preload duration     : 500 ms













    SAMPLE

    Download Links

    Code:
    http://www.fileserve.com/file/HCyExJx
    
    http://www.wupload.com/file/1921128157/Loot_-_2011_-_Super_Cam_XviD.avi
    http://www.filefactory.com/file/cfc8e5d/n/Loot_-_2011_-_Super_Cam_XviD.avi
    http://filekeen.com/dtl5ig2jyfex

 

 

Posting Permissions

  • You may not post new threads
  • You may not post replies
  • You may not post attachments
  • You may not edit your posts
  •