Results 1 to 1 of 1
  1. #1
    dR Rockers www.desirulez.net
    Join Date
    Aug 2011
    Posts
    5,859

    Default TRIDEV [1989] - 2.18GB - 720p - 1/2 - DVDRip - x264 - AC3 - KK4EVER

    Follow us on Social Media





    TEAM DUS PRESENTS

    TRIDEV - 1989 720p DVDRip x264 AC3




    General
    ----------
    Unique ID : 245490806382978357477304236915875692550 (0xB8AFCF3BF288C104A4F369380EC8C006)
    Complete name : E:\Data\AZ-Data\TRIDEV - 1989 -_- 720p -_- DVDRip -_- x264-_- AC3 -_- KK4EVER @ DUS\TRIDEV - 1989 -_- 720p -_- DVDRip -_- x264-_- AC3 -_- KK4EVER @ DUS.mkv
    Format : Matroska
    Format version : Version 2
    File size : 2.19 GiB
    Duration : 2h 45mn
    Overall bit rate mode : Variable
    Overall bit rate : 1 894 Kbps
    Encoded date : UTC 2011-11-02 17:14:08
    Writing application : mkvmerge v4.9.1 ('Ich will') built on Jul 11 2011 23:53:15
    Writing library : libebml v1.2.1 + libmatroska v1.1.1

    Video
    -------
    ID : 1
    Format : AVC
    Format/Info : Advanced Video Codec
    Format profile : [email protected]
    Format settings, CABAC : Yes
    Format settings, ReFrames : 3 frames
    Codec ID : V_MPEG4/ISO/AVC
    Duration : 2h 45mn
    Bit rate mode : Variable
    Bit rate : 1 692 Kbps
    Maximum bit rate : 40.0 Mbps
    Width : 1 280 pixels
    Height : 544 pixels
    Display aspect ratio : 2.35:1
    Frame rate : 29.970 fps
    Color space : YUV
    Chroma subsampling : 4:2:0
    Bit depth : 8 bits
    Scan type : Progressive
    Bits/(Pixel*Frame) : 0.081
    Stream size : 1.93 GiB (88%)
    Writing library : x264 core 116 r2074 2641b9e


    Audio
    -------
    ID : 2
    Format : AC-3
    Format/Info : Audio Coding 3
    Mode extension : CM (complete main)
    Codec ID : A_AC3
    Duration : 2h 45mn
    Bit rate mode : Constant
    Bit rate : 192 Kbps
    Channel(s) : 6 channels
    Channel positions : Front: L C R, Side: L R, LFE
    Sampling rate : 48.0 KHz
    Bit depth : 16 bits
    Compression mode : Lossy
    Stream size : 228 MiB (10%)
































    SINGLE LINK
    Code:
    http://www.wupload.com/file/1909732327/TRIDEV - 1989 -_- 720p -_- DVDRip -_- x264-_- AC3 -_- KK4EVER @ DUS.mkv
    Code:
    http://www.filesonic.com/file/2984819445/TRIDEV - 1989 -_- 720p -_- DVDRip -_- x264-_- AC3 -_- KK4EVER @ DUS.mkv


    600MB LINKS


    Code:
    http://www.fileserve.com/file/YgGSPK8/TRIDEV - 1989 -_- 720p -_- DVDRip -_- x264-_- AC3 -_- KK4EVER @ DUS.mkv.001
    http://www.fileserve.com/file/WxYwKAP/TRIDEV - 1989 -_- 720p -_- DVDRip -_- x264-_- AC3 -_- KK4EVER @ DUS.mkv.002
    http://www.fileserve.com/file/HAJD6tw/TRIDEV - 1989 -_- 720p -_- DVDRip -_- x264-_- AC3 -_- KK4EVER @ DUS.mkv.003
    http://www.fileserve.com/file/M56bC6t/TRIDEV - 1989 -_- 720p -_- DVDRip -_- x264-_- AC3 -_- KK4EVER @ DUS.mkv.004
    
    
    http://www.wupload.com/file/1909723172/TRIDEV - 1989 -_- 720p -_- DVDRip -_- x264-_- AC3 -_- KK4EVER @ DUS.mkv.001
    http://www.wupload.com/file/1909724037/TRIDEV - 1989 -_- 720p -_- DVDRip -_- x264-_- AC3 -_- KK4EVER @ DUS.mkv.002
    http://www.wupload.com/file/1909724247/TRIDEV - 1989 -_- 720p -_- DVDRip -_- x264-_- AC3 -_- KK4EVER @ DUS.mkv.003
    http://www.wupload.com/file/1909724297/TRIDEV - 1989 -_- 720p -_- DVDRip -_- x264-_- AC3 -_- KK4EVER @ DUS.mkv.004
    
    
    http://www.filesonic.com/file/2984798755/TRIDEV - 1989 -_- 720p -_- DVDRip -_- x264-_- AC3 -_- KK4EVER @ DUS.mkv.001
    http://www.filesonic.com/file/2984807545/TRIDEV - 1989 -_- 720p -_- DVDRip -_- x264-_- AC3 -_- KK4EVER @ DUS.mkv.002
    http://www.filesonic.com/file/2984807485/TRIDEV - 1989 -_- 720p -_- DVDRip -_- x264-_- AC3 -_- KK4EVER @ DUS.mkv.003
    http://www.filesonic.com/file/2984803165/TRIDEV - 1989 -_- 720p -_- DVDRip -_- x264-_- AC3 -_- KK4EVER @ DUS.mkv.004

 

 

Posting Permissions

  • You may not post new threads
  • You may not post replies
  • You may not post attachments
  • You may not edit your posts
  •