Results 1 to 1 of 1
  1. #1

    Post The.Exorcism.Of.Emily.Rose.2005.Unrated.BRrip.720p.Dual.Audio.Eng-Hindi-=KSRR=-

    Follow us on Social Media







    The.Exorcism.Of.Emily.Rose.2005.Unrated.BRrip.720p.Dual.Audio.Eng-Hindi-=KSRR=-



    General

    Format : Matroska
    File size : 767 MiB
    Duration : 1h 56mn
    Overall bit rate : 918 Kbps
    Encoded date : UTC 2011-10-16 07:02:51
    Writing application : mkvmerge v4.3.0 ('Escape from the Island') built on Sep 5 2010 10:30:51
    Writing library : libebml v1.0.0 + libmatroska v1.0.0

    Video
    ID : 1
    Format : AVC
    Format/Info : Advanced Video Codec
    Format profile : [email protected]
    Format settings, CABAC : Yes
    Format settings, ReFrames : 10 frames
    Muxing mode : Header stripping
    Codec ID : V_MPEG4/ISO/AVC
    Duration : 1h 56mn
    Bit rate : 837 Kbps
    Width : 1 280 pixels
    Height : 534 pixels
    Display aspect ratio : 2.35:1
    Frame rate : 25.000 fps
    Color space : YUV
    Chroma subsampling : 4:2:0
    Bit depth : 8 bits
    Scan type : Progressive
    Bits/(Pixel*Frame) : 0.049
    Stream size : 685 MiB (89%)
    Language : Hindi

    Audio #1
    ID : 2
    Format : MPEG Audio
    Format version : Version 2
    Format profile : Layer 3
    Mode : Joint stereo
    Muxing mode : Header stripping
    Codec ID : A_MPEG/L3
    Codec ID/Hint : MP3
    Duration : 1h 56mn
    Bit rate mode : Constant
    Bit rate : 48.0 Kbps
    Channel(s) : 2 channels
    Sampling rate : 22.05 KHz
    Compression mode : Lossy
    Stream size : 40.1 MiB (5%)
    Title : Hindi Audio -=KSRR=-
    Writing library : LAME3.98.4UUUUUULAME
    Language : Hindi

    Audio #2
    ID : 3
    Format : MPEG Audio
    Format version : Version 2
    Format profile : Layer 3
    Mode : Joint stereo
    Mode extension : MS Stereo
    Muxing mode : Header stripping
    Codec ID : A_MPEG/L3
    Codec ID/Hint : MP3
    Duration : 1h 56mn
    Bit rate mode : Constant
    Bit rate : 32.0 Kbps
    Channel(s) : 2 channels
    Sampling rate : 16.0 KHz
    Compression mode : Lossy
    Stream size : 26.7 MiB (3%)
    Title : English Audio
    Writing library : LAME3.98.4
    Language : English




    IMDB Url: Besatt (2005) - IMDb
    Title: The Exorcism of Emily Rose (2005)
    Tagline: What happened to Emily?
    Genre(s): Crime | Drama | Horror | Thriller
    Rating: 6.7/10 from 41,507 users.
    PEGI: Rated PG-13 for thematic material, including intense/frightening sequences and disturbing images

    Description
    Directed by Scott Derrickson. With Laura Linney, Tom Wilkinson, Shohreh Aghdashloo, Campbell Scott. A lawyer takes on a negligent homicide case involving a priest who performed an exorcism on a young girl.

    Storyline
    When a younger girl called Emily Rose dies, everyone puts blame on the exorcism which was performed on her by Father Moore prior to her death. The priest is arrested on suspicion of murder. The trail begins with lawyer Erin Bruner representing Moore, but it is not going to be easy, as no one wants to believe what Father Moore says is true.












    Code:
    http://www.fileserve.com/file/DcrujCq
    
    OR
    
    http://www.filesonic.com/file/2730869074

 

 

Posting Permissions

  • You may not post new threads
  • You may not post replies
  • You may not post attachments
  • You may not edit your posts
  •