Results 1 to 1 of 1
  1. #1

    Wink Jhankaar Beats (2003) ~ Suno Na ~ DvdRip ~

    Follow us on Social Media







    Jhankaar Beats (2003) ~ Suno Na ~ DvdRip ~







    Code:
    General
    Format : MPEG-4
    Format profile : Base Media
    Codec ID : isom
    File size : 24.8 MiB
    Duration : 3mn 2s
    Overall bit rate : 1137 Kbps
    Ripper : -=[Mr Lonely]=-.
    
    Video
    Format : AVC
    Format/Info : Advanced Video Codec
    Format profile : [email protected]
    Format settings, CABAC : Yes
    Format settings, ReFrames : 13 frames
    Codec ID : avc1
    Codec ID/Info : Advanced Video Coding
    Duration : 3mn 2s
    Bit rate mode : Variable
    Bit rate : 1000 Kbps
    Maximum bit rate : 1754 Kbps
    Width : 640 pixels
    Height : 272 pixels
    Display aspect ratio : 2.35
    Frame rate mode : Constant
    Frame rate : 29.970 fps
    Resolution : 24 bits
    Colorimetry : 4:2:0
    Scan type : Progressive
    Bits/(Pixel*Frame) : 0.192
    Stream size : 21.9 MiB (88%)
    Writing library : x264 core 47 svn-530M
    
    Audio
    Format : AAC
    Format/Info : Advanced Audio Codec
    Format version : Version 4
    Format profile : LC
    Format settings, SBR : Yes
    Format settings, PS : No
    Codec ID : 40
    Duration : 3mn 2s
    Bit rate mode : Variable
    Bit rate : 132.3 Kbps
    Nominal bit rate : 132.3 Kbps
    Maximum bit rate : 195 Kbps
    Channel(s) : 6 channels
    Channel positions : Front: L C R, Rear: L R, LFE
    Sampling rate : 48.0 KHz
    Resolution : 16 bits
    Stream size : 2.86 MiB (12%)
    Language : English
















    Rapidshare:
    Code:
    http://rapidshare.com/files/212544056/TS.Suno_Na.By.Tuhin.Team.Sparkar.mp4

    Uploaded.to:
    Code:
    http://uploaded.to/?id=uacwwy


 

 

Posting Permissions

  • You may not post new threads
  • You may not post replies
  • You may not post attachments
  • You may not edit your posts
  •