Results 1 to 1 of 1
  1. #1
    dR Contributor www.desirulez.net
    Join Date
    Jan 2011
    Posts
    2,299

    T

    Smile RA One (2011) - 600MB - Pre DVDRip - x264 - AVC - AC3 - [XMR]

    Follow us on Social Media







    Ripper : Rahul
    Source : ICTV
    Complete name : RA. One (2011)
    Format : Matroska
    File size : 586 MiB
    Duration : 2h 34mn
    Overall bit rate : 530 Kbps
    Encoded date : UTC 2011-10-28 09:56:24
    Writing application : mkvmerge v4.3.0 ('Escape from the v1.0.0

    Video
    ID : 1
    Format : AVC
    Format/Info : Advanced Video Codec
    Format profile : [email protected]
    Format settings, CABAC : Yes
    Format settings, ReFrames : 4 frames
    Muxing mode : Header stripping
    Codec ID : V_MPEG4/ISO/AVC
    Duration : 2h 34mn
    Bit rate : 401 Kbps
    Width : 624 pixels
    Height : 272 pixels
    Display aspect ratio : 2.25:1
    Frame rate : 23.976 fps
    Color space : YUV
    Chroma subsampling : 4:2:0
    Bit depth : 8 bits
    Scan type : Progressive
    Bits/(Pixel*Frame) : 0.099
    Stream size : 433 MiB (74%)
    Writing library : x264 core 116 r2074 2641b9e


    Audio
    ID : 2
    Format : AC-3
    Format/Info : Audio Coding 3
    Mode extension : CM (complete main)
    Muxing mode : Header stripping
    Codec ID : A_AC3
    Duration : 2h 34mn
    Bit rate mode : Constant
    Bit rate : 128 Kbps
    Channel(s) : 2 channels
    Channel positions : Front: L R
    Sampling rate : 48.0 KHz
    Bit depth : 16 bits
    Compression mode : Lossy
    Stream size : 142 MiB (24%)








    Credits to "XMR"



    Code:
    http://www.fileserve.com/file/dws4bRs

 

 

Posting Permissions

  • You may not post new threads
  • You may not post replies
  • You may not post attachments
  • You may not edit your posts
  •