Results 1 to 1 of 1
  1. #1
    dR Rockers www.desirulez.net
    Join Date
    Aug 2011
    Posts
    5,859

    T

    Default Pakeezah [1971] - 2.18GB - 720p - DVDRip - x264 - AC3 - PRG

    Follow us on Social Media







    TEAM PRG PRESENTS

    PAKEEZAH - 1971 720p DVDRip x264 AC3





    General

    Unique ID : 194624492671830583433781658708118902888 (0x926B505779FB115CAD8B00B755889868)
    Complete name : E:\Ripped\Pakeezah\Pakeezah.mkv
    Format : Matroska
    Format version : Version 2
    File size : 2.19 GiB
    Duration : 2h 26mn
    Overall bit rate mode : Variable
    Overall bit rate : 2 137 Kbps
    Encoded date : UTC 2011-10-27 17:32:26
    Writing application : mkvmerge v4.9.1 ('Ich will') built on Jul 11 2011 23:53:15
    Writing library : libebml v1.2.1 + libmatroska v1.1.1

    Video
    -------
    ID : 1
    Format : AVC
    Format/Info : Advanced Video Codec
    Format profile : [email protected]
    Format settings, CABAC : Yes
    Format settings, ReFrames : 3 frames
    Codec ID : V_MPEG4/ISO/AVC
    Duration : 2h 26mn
    Bit rate mode : Variable
    Bit rate : 1 943 Kbps
    Maximum bit rate : 40.0 Mbps
    Width : 1 280 pixels
    Height : 544 pixels
    Display aspect ratio : 2.35:1
    Frame rate : 29.970 fps
    Color space : YUV
    Chroma subsampling : 4:2:0
    Bit depth : 8 bits
    Scan type : Progressive
    Bits/(Pixel*Frame) : 0.093
    Stream size : 1.95 GiB (89%)
    Writing library : x264 core 116 r2074 2641b9e

    Audio
    -------
    ID : 2
    Format : AC-3
    Format/Info : Audio Coding 3
    Mode extension : CM (complete main)
    Codec ID : A_AC3
    Duration : 2h 26mn
    Bit rate mode : Constant
    Bit rate : 192 Kbps
    Channel(s) : 6 channels
    Channel positions : Front: L C R, Side: L R, LFE
    Sampling rate : 48.0 KHz
    Bit depth : 16 bits
    Compression mode : Lossy
    Stream size : 201 MiB (9%)
































    SINGLE LINK

    Code:
    http://www.filesonic.com/file/2896639435/Pakeezah [1971] 720p DVDRip x264 Ac3 - Kk4ever.mkv
    Code:
    http://www.wupload.com/file/1848380181/Pakeezah [1971] 720p DVDRip x264 Ac3 - Kk4ever.mkv

    600MB LINKS


    Code:
    http://www.fileserve.com/file/vXxJadu/Pakeezah [1971] 720p DVDRip x264 Ac3 - Kk4ever.mkv.001
    http://www.fileserve.com/file/w6UrYMF/Pakeezah [1971] 720p DVDRip x264 Ac3 - Kk4ever.mkv.002
    http://www.fileserve.com/file/XsYErHw/Pakeezah [1971] 720p DVDRip x264 Ac3 - Kk4ever.mkv.003
    http://www.fileserve.com/file/35MhFGZ/Pakeezah [1971] 720p DVDRip x264 Ac3 - Kk4ever.mkv.004
    
    
    http://www.filesonic.com/file/2896952795/Pakeezah [1971] 720p DVDRip x264 Ac3 - Kk4ever.mkv.001
    http://www.filesonic.com/file/2896446405/Pakeezah [1971] 720p DVDRip x264 Ac3 - Kk4ever.mkv.002
    http://www.filesonic.com/file/2896562475/Pakeezah [1971] 720p DVDRip x264 Ac3 - Kk4ever.mkv.003
    http://www.filesonic.com/file/2896446095/Pakeezah [1971] 720p DVDRip x264 Ac3 - Kk4ever.mkv.004
    
    
    http://www.wupload.com/file/1847977646/Pakeezah [1971] 720p DVDRip x264 Ac3 - Kk4ever.mkv.001
    http://www.wupload.com/file/1848140671/Pakeezah [1971] 720p DVDRip x264 Ac3 - Kk4ever.mkv.002
    http://www.wupload.com/file/1848134301/Pakeezah [1971] 720p DVDRip x264 Ac3 - Kk4ever.mkv.003
    http://www.wupload.com/file/1848049806/Pakeezah [1971] 720p DVDRip x264 Ac3 - Kk4ever.mkv.004

 

 

Posting Permissions

  • You may not post new threads
  • You may not post replies
  • You may not post attachments
  • You may not edit your posts
  •