Results 1 to 1 of 1
  1. #1
    dR Rockers www.desirulez.net
    Join Date
    Apr 2011
    Posts
    687

    T

    Default Dussasana (2011) - 400MB - DVDRip - X264 - MP3 [Team WA]

    Follow us on Social Media







    Dussasana (2011) - 400MB - DVDRip - X264 - MP3 [ Team WA ]





    Code:
    General
    Complete name                  : Dussasana.400mb.TeamWa.mkv.mkv
    Format                         : Matroska
    File size                      : 411 MiB
    Duration                       : 2h 21mn
    Overall bit rate               : 406 Kbps
    
    Video
    ID                             : 1
    Format                         : AVC
    Format/Info                    : Advanced Video Codec
    Codec ID                       : V_MPEG4/ISO/AVC
    Duration                       : 2h 21mn
    Bit rate                       : 359 Kbps
    Width                          : 448 pixels
    Height                         : 192 pixels
    Display aspect ratio           : 2.35:1
    Frame rate                     : 23.976 fps
    Stream size                    : 355 MiB (86%)
    Language                       : English
    
    Audio
    ID                             : 2
    Format                         : MPEG Audio
    Format version                 : Version 2
    Format profile                 : Layer 3
    Duration                       : 2h 21mn
    Bit rate mode                  : Constant
    Bit rate                       : 48.0 Kbps
    Channel(s)                     : 2 channels
    Sampling rate                  : 22.05 KHz
    Compression mode               : Lossy
    Stream size                    : 48.6 MiB (12%)
    
    
    No WATERMARKS






    Credits To : Team WA





    FileDino

    Code:
    http://www.filedino.com/8j4t0xkfxjkt
    SenD My Way

    Code:
    http://www.sendmyway.com/q3v0uo8oiai8

    Wupload


    Code:
    http://www.wupload.com/file/1849118851/Dussasana.400mb.TeamWa.mkv.mkv

    Filesonic

    Code:
    http://www.filesonic.com/file/2899114705/Dussasana.400mb.TeamWa.mkv.mkv

    Fileserve

    Code:
    http://www.fileserve.com/file/7Mk8tfq/Dussasana.400mb.TeamWa.mkv.mkv



 

 

Posting Permissions

  • You may not post new threads
  • You may not post replies
  • You may not post attachments
  • You may not edit your posts
  •