Results 1 to 1 of 1
  1. #1
    dR Rockers www.desirulez.net
    Join Date
    Apr 2011
    Posts
    687

    T

    Default Madrasapattinam (2010) - 400mb- Bluray Rip - X264 - MP3 [Team WA.]

    Follow us on Social Media












    Code:
    Bluray Rip Details:
    
    Complete name                            : Madrasapatinam.2010.Bluray.Rip.400Mb.mkv
    Format                                   : Matroska
    Format version                           : Version 2
    File size                                : 394 MiB
    Duration                                 : 2h 45mn
    Overall bit rate                         : 332 Kbps
    Encoded date                             : UTC 2011-11-02 18:54:02
    Writing application                      : mkvmerge v4.9.1 ('Ich will') built on Jul 11 2011 23:53:15
    Writing library                          : libebml v1.2.1 + libmatroska v1.1.1
    
    Video
    ID                                       : 1
    Format                                   : AVC
    Format/Info                              : Advanced Video Codec
    Format profile                           : [email protected]
    Format settings, CABAC                   : Yes
    Format settings, ReFrames                : 4 frames
    Codec ID                                 : V_MPEG4/ISO/AVC
    Duration                                 : 2h 45mn
    Bit rate                                 : 299 Kbps
    Width                                    : 468 pixels
    Height                                   : 224 pixels
    Display aspect ratio                     : 2.089
    Frame rate                               : 23.976 fps
    Color space                              : YUV
    Chroma subsampling                       : 4:2:0
    Bit depth                                : 8 bits
    Scan type                                : Progressive
    Bits/(Pixel*Frame)                       : 0.119
    Stream size                              : 348 MiB (88%)
    
    Audio
    ID                                       : 2
    Format                                   : MPEG Audio
    Codec ID/Hint                            : MP3
    Duration                                 : 2h 45mn
    Bit rate mode                            : Constant
    Bit rate                                 : 32.0 Kbps
    Channel(s)                               : 2 channels
    Sampling rate                            : 16.0 KHz
    Compression mode                         : Lossy
    Stream size                              : 37.9 MiB (10%)
    Writing library                          : LAME3.98.4












    Credits To : Team WA





    FileDino

    Code:
    http://www.filedino.com/y9dzhfo8yunr
    Send My Way

    Code:
    http://www.sendmyway.com/bj9ts2hzmm7a


    Wupload


    Code:
    http://www.wupload.com/file/1848696981/Madrasapatinam.2010.Bluray.Rip.400Mb.mkv


    FileJungle

    Code:
    http://www.filejungle.com/f/JEf7Vf/Madrasapatinam.2010.Bluray.Rip.400Mb.mkv


    Filesonic

    Code:
    http://www.filesonic.fr/file/2898274545/Madrasapatinam.2010.Bluray.Rip.400Mb.mkv


    Fileserve

    Code:
    http://www.fileserve.com/file/K8FspFM/Madrasapatinam.2010.Bluray.Rip.400Mb.mkv

 

 

Posting Permissions

  • You may not post new threads
  • You may not post replies
  • You may not post attachments
  • You may not edit your posts
  •