Results 1 to 3 of 3
  1. #1
    dR Rockers www.desirulez.net
    Join Date
    Sep 2011
    Posts
    248

    T

    Post Captain.America.The.First.Avenger.2011.720p.BRRip(Dual Audio)

    Follow us on Social Media








    Captain.America.The.First.Avenger.2011.720p.BRRip(Dual Audio)




    General
    General

    Format : Matroska
    Format version : Version 2
    File size : 870 MiB
    Duration : 2h 4mn
    Overall bit rate : 979 Kbps
    Encoded date : UTC 2011-10-30 13:42:15
    Writing application : mkvmerge v4.3.0 ('Escape from the Island') built on Sep 5 2010 10:30:51
    Writing library : libebml v1.0.0 + libmatroska v1.0.0

    Video
    ID : 1
    Format : AVC
    Format/Info : Advanced Video Codec
    Format profile : [email protected]
    Format settings, CABAC : Yes
    Format settings, ReFrames : 4 frames
    Muxing mode : Header stripping
    Codec ID : V_MPEG4/ISO/AVC
    Duration : 2h 4mn
    Bit rate : 898 Kbps
    Width : 1 280 pixels
    Height : 544 pixels
    Display aspect ratio : 2.35:1
    Frame rate : 23.976 fps
    Color space : YUV
    Chroma subsampling : 4:2:0
    Bit depth : 8 bits
    Scan type : Progressive
    Bits/(Pixel*Frame) : 0.054
    Stream size : 782 MiB (90%)
    Language : Hindi

    Audio #1
    ID : 2
    Format : MPEG Audio
    Format version : Version 2
    Format profile : Layer 3
    Mode : Joint stereo
    Mode extension : MS Stereo
    Muxing mode : Header stripping
    Codec ID : A_MPEG/L3
    Codec ID/Hint : MP3
    Duration : 2h 4mn
    Bit rate mode : Constant
    Bit rate : 32.0 Kbps
    Channel(s) : 2 channels
    Sampling rate : 16.0 KHz
    Compression mode : Lossy
    Stream size : 28.4 MiB (3%)
    Title : English Audio [~KSRR~]
    Writing library : LAME3.98.4
    Language : English

    Audio #2
    ID : 3
    Format : MPEG Audio
    Format version : Version 2
    Format profile : Layer 3
    Mode : Joint stereo
    Mode extension : MS Stereo
    Muxing mode : Header stripping
    Codec ID : A_MPEG/L3
    Codec ID/Hint : MP3
    Duration : 2h 4mn
    Bit rate mode : Constant
    Bit rate : 48.0 Kbps
    Channel(s) : 2 channels
    Sampling rate : 22.05 KHz
    Compression mode : Lossy
    Stream size : 42.6 MiB (5%)
    Title : Hindi Audio [~KSRR~]
    Writing library : LAME3.98.4UUUUUULAME
    Language : Hindi

























    Code:
    http://depositfiles.com/files/npmxclzov

    Code:
    http://www.fileserve.com/file/ug9Xgxe/Captain.America.The.First.Avenger.2011.720p.BRRip(Dual Audio){Hindi-English}~JAGJIT639~KHARAY[~KSRR~] .mkv

    Code:
    http://www.filesonic.com/file/2852198995

    Code:
    http://www.wupload.com/file/1785378786


  2. #2
    New Arrivals
    Join Date
    Jun 2011
    Posts
    2

    T

    Default

    Thanks

  3. #3
    Landed To DesiRulez www.desirulez.net
    Join Date
    Jun 2011
    Location
    Paris, France
    Posts
    13

    T

    Default

    again file not found in all... all Captain America files has been removed or Deleted !!!

 

 

Posting Permissions

  • You may not post new threads
  • You may not post replies
  • You may not post attachments
  • You may not edit your posts
  •