Results 1 to 2 of 2
  1. #1
    dR Rockers www.desirulez.net
    Join Date
    Aug 2011
    Posts
    5,859

    T

    Default Chamatkar (1992) - 4.88GB - Upscaled - DVDRip - {DUS}

    Follow us on Social Media









    Chamatkaar

    1992



    Code:
    General
    Complete name : Chamatkaar upscaled.avi
    Format : AVI
    Format/Info : Audio Video Interleave
    Format profile : OpenDML
    File size : 4.88 GiB
    Duration : 2h 50mn
    Overall bit rate : 4 099 Kbps
    Writing application : VirtualDubMod 1.5.4.1 (build 2178/release)
    Writing library : VirtualDubMod build 2178/release

    Video
    ID : 0
    Format : MPEG-4 Visual
    Format profile : Advanced [email protected]
    Format settings, BVOP : 1
    Format settings, QPel : No
    Format settings, GMC : No warppoints
    Format settings, Matrix : Custom
    Codec ID : XVID
    Codec ID/Hint : XviD
    Duration : 2h 50mn
    Bit rate : 3 644 Kbps
    Width : 1 024 pixels
    Height : 464 pixels
    Display aspect ratio : 2.2:1
    Frame rate : 23.976 fps
    Color space : YUV
    Chroma subsampling : 4:2:0
    Bit depth : 8 bits
    Scan type : Progressive
    Compression mode : Lossy
    Bits/(Pixel*Frame) : 0.320
    Stream size : 4.34 GiB (89%)
    Writing library : XviD 1.2.1 (UTC 2008-12-04)

    Audio
    ID : 1
    Format : AC-3
    Format/Info : Audio Coding 3
    Mode extension : CM (complete main)
    Codec ID : 2000
    Duration : 2h 50mn
    Bit rate mode : Constant
    Bit rate : 448 Kbps
    Channel(s) : 6 channels
    Channel positions : Front: L C R, Side: L R, LFE
    Sampling rate : 48.0 KHz
    Bit depth : 16 bits
    Compression mode : Lossy
    Stream size : 547 MiB (11%)
    Alignment : Split accross interleaves
    Interleave, duration : 96 ms (2.30 video frames)
    Interleave, preload duration : 96 ms










    SINGLE LINK

    Code:
    http://www.filesonic.com/file/2840473485/Chamatkaar upscaled (2).avi
    Code:
    http://www.wupload.com/file/1765463511/Chamatkaar upscaled (2).avi

    700MB LINKS


    Code:
    http://www.fileserve.com/file/uSNvzn2/Chamatkaar upscaled (2).avi.001
    http://www.fileserve.com/file/eGjqJdJ/Chamatkaar upscaled (2).avi.002
    http://www.fileserve.com/file/NvBPY6d/Chamatkaar upscaled (2).avi.003
    http://www.fileserve.com/file/JtWf85X/Chamatkaar upscaled (2).avi.004
    http://www.fileserve.com/file/3pFFqVn/Chamatkaar upscaled (2).avi.005
    http://www.fileserve.com/file/8UY7ZrT/Chamatkaar upscaled (2).avi.006
    http://www.fileserve.com/file/hcShWxZ/Chamatkaar upscaled (2).avi.007
    http://www.fileserve.com/file/j9h9VJQ/Chamatkaar upscaled (2).avi.008
    
    
    http://www.filesonic.com/file/2840315385/Chamatkaar upscaled (2).avi.001
    http://www.filesonic.com/file/2840693435/Chamatkaar upscaled (2).avi.002
    http://www.filesonic.com/file/2840307795/Chamatkaar upscaled (2).avi.003
    http://www.filesonic.com/file/2840314345/Chamatkaar upscaled (2).avi.004
    http://www.filesonic.com/file/2840693425/Chamatkaar upscaled (2).avi.005
    http://www.filesonic.com/file/2840314325/Chamatkaar upscaled (2).avi.006
    http://www.filesonic.com/file/2840314355/Chamatkaar upscaled (2).avi.007
    http://www.filesonic.com/file/2840290195/Chamatkaar upscaled (2).avi.008
    
    
    http://www.wupload.com/file/1765291371/Chamatkaar upscaled (2).avi.001
    http://www.wupload.com/file/1765252186/Chamatkaar upscaled (2).avi.002
    http://www.wupload.com/file/1764834021/Chamatkaar upscaled (2).avi.003
    http://www.wupload.com/file/1764816211/Chamatkaar upscaled (2).avi.004
    http://www.wupload.com/file/1764859531/Chamatkaar upscaled (2).avi.005
    http://www.wupload.com/file/1766609596/Chamatkaar upscaled (2).avi.006
    http://www.wupload.com/file/1766609586/Chamatkaar upscaled (2).avi.007
    http://www.wupload.com/file/1764729151/Chamatkaar upscaled (2).avi.008

  2. #2
    Retired Staff www.desirulez.net
    Join Date
    Feb 2011
    Location
    Australia
    Posts
    1,436

    T

    Default

    Thanks buddy... nice quality there.







 

 

Posting Permissions

  • You may not post new threads
  • You may not post replies
  • You may not post attachments
  • You may not edit your posts
  •