Results 1 to 1 of 1
  1. #1
    dR Rockers www.desirulez.net
    Join Date
    Sep 2011
    Posts
    248

    T

    Post Back To The Future Trilogy BRRip(Dual audio)Eng Hindi HD

    Follow us on Social Media








    Back To The Future Trilogy BRRip(Dual audio)Eng Hindi HD







    Part I


    General : Back To The Future(1985) BRRip(Dual audio)[Eng Hindi]HD Royals
    Format : AVI
    Format/Info : Audio Video Interleave
    File size : 898 MB
    Duration : 1h 55mn
    Overall bit rate : 1 083 Kbps

    Video
    ID : 0
    Format : MPEG-4 Visual
    Format profile : Advanced [email protected]
    Format settings, BVOP : Yes
    Format settings, QPel : No
    Format settings, GMC : No warppoints
    Format settings, Matrix : Default (H.263)
    Codec ID : DX50
    Codec ID/Hint : DivX 5
    Duration : 1h 55mn
    Bit rate : 860 Kbps
    Width : 680 pixels
    Height : 368 pixels
    Display aspect ratio : 16:9
    Frame rate : 23.976 fps
    Color space : YUV
    Chroma subsampling : 4:2:0
    Bit depth : 8 bits
    Scan type : Progressive
    Bits/(Pixel*Frame) : 0.143
    Stream size : 713 MB (79%)
    Writing library : XviD 1.1.0 (UTC 2005-11-22)


    Audio #1
    ID : 1
    Format : MPEG Audio
    Format version : Version 1
    Format profile : Layer 3
    Mode : Joint stereo
    Codec ID : 55
    Codec ID/Hint : MP3
    Duration : 1h 55mn
    Bit rate mode : Constant
    Bit rate : 96.0 Kbps
    Channel(s) : 2 channels
    Sampling rate : 48.0 KHz
    Stream size : 79.6 MiB (9%)
    Alignment : Aligned on interleaves
    Interleave, duration : 787 ms (18.87 video frames)
    Interleave, preload duration : 216 ms


    Audio #2
    ID : 2
    Format : MPEG Audio
    Format version : Version 1
    Format profile : Layer 3
    Mode : Joint stereo
    Mode extension : MS Stereo
    Codec ID : 55
    Codec ID/Hint : MP3
    Duration : 1h 51mn
    Bit rate mode : Constant
    Bit rate : 128 Kbps
    Channel(s) : 2 channels
    Sampling rate : 44.1 KHz
    Stream size : 102 MiB (11%)
    Alignment : Aligned on interleaves
    Interleave, duration : 822 ms (19.72 video frames)
    Interleave, preload duration : 208 ms
    Title : HD Royals
    Writing library : LAME3.96.1



    Part II


    General : Back To The Future Part II(1989) BRRip(Dual audio)[Eng Hindi]HD Royals
    Format : AVI
    Format/Info : Audio Video Interleave
    Format profile : OpenDML
    File size : 891 MiB
    Duration : 1h 47mn
    Overall bit rate : 1 154 Kbps
    Writing application : AVI-Mux GUI


    Video
    ID : 0
    Format : MPEG-4 Visual
    Format profile : Advanced [email protected]
    Format settings, BVOP : Yes
    Format settings, QPel : No
    Format settings, GMC : No warppoints
    Format settings, Matrix : Default (H.263)
    Codec ID : DX50
    Codec ID/Hint : DivX 5
    Duration : 1h 47mn
    Bit rate : 931 Kbps
    Width : 680 pixels
    Height : 368 pixels
    Display aspect ratio : 16:9
    Frame rate : 23.976 fps
    Color space : YUV
    Chroma subsampling : 4:2:0
    Bit depth : 8 bits
    Scan type : Progressive
    Bits/(Pixel*Frame) : 0.155
    Stream size : 719 MiB (81%)
    Writing library : XviD 1.1.0 (UTC 2005-11-22)


    Audio #1
    ID : 1
    Format : MPEG Audio
    Format version : Version 1
    Format profile : Layer 3
    Mode : Joint stereo
    Mode extension : MS Stereo
    Codec ID : 55
    Codec ID/Hint : MP3
    Duration : 1h 47mn
    Bit rate mode : Constant
    Bit rate : 96.0 Kbps
    Channel(s) : 2 channels
    Sampling rate : 48.0 KHz
    Stream size : 74.1 MiB (8%)
    Alignment : Aligned on interleaves
    Interleave, duration : 738 ms (17.70 video frames)
    Interleave, preload duration : 216 ms
    Writing library : LAME3.97


    Audio #2
    ID : 2
    Format : MPEG Audio
    Format version : Version 1
    Format profile : Layer 3
    Mode : Joint stereo
    Mode extension : MS Stereo
    Codec ID : 55
    Codec ID/Hint : MP3
    Duration : 1h 43mn
    Bit rate mode : Constant
    Bit rate : 128 Kbps
    Channel(s) : 2 channels
    Sampling rate : 44.1 KHz
    Stream size : 94.9 MiB (11%)
    Alignment : Aligned on interleaves
    Interleave, duration : 757 ms (18.15 video frames)
    Interleave, preload duration : 208 ms
    Title : HD Royals
    Writing library : LAME3.96.1


    Part III


    General : Back To The Future Part III(1990) BRRip(Dual audio)[Eng Hindi]HD Royals
    Format : AVI
    Format/Info : Audio Video Interleave
    Format profile : OpenDML
    File size : 899 MiB
    Duration : 1h 58mn
    Overall bit rate : 1 064 Kbps
    Writing application : AVI-Mux GUI


    Video
    ID : 0
    Format : MPEG-4 Visual
    Format profile : Advanced [email protected]
    Format settings, BVOP : Yes
    Format settings, QPel : No
    Format settings, GMC : No warppoints
    Format settings, Matrix : Default (H.263)
    Codec ID : DX50
    Codec ID/Hint : DivX 5
    Duration : 1h 58mn
    Bit rate : 842 Kbps
    Width : 680 pixels
    Height : 368 pixels
    Display aspect ratio : 16:9
    Frame rate : 23.976 fps
    Color space : YUV
    Chroma subsampling : 4:2:0
    Bit depth : 8 bits
    Scan type : Progressive
    Bits/(Pixel*Frame) : 0.140
    Stream size : 712 MiB (79%)
    Writing library : XviD 1.1.0 (UTC 2005-11-22)


    Audio #1
    ID : 1
    Format : MPEG Audio
    Format version : Version 1
    Format profile : Layer 3
    Mode : Joint stereo
    Mode extension : MS Stereo
    Codec ID : 55
    Codec ID/Hint : MP3
    Duration : 1h 58mn
    Bit rate mode : Constant
    Bit rate : 96.0 Kbps
    Channel(s) : 2 channels
    Sampling rate : 48.0 KHz
    Stream size : 81.2 MiB (9%)
    Alignment : Aligned on interleaves
    Interleave, duration : 796 ms (19.08 video frames)
    Interleave, preload duration : 216 ms


    Audio #2
    ID : 2
    Format : MPEG Audio
    Format version : Version 1
    Format profile : Layer 3
    Mode : Joint stereo
    Mode extension : MS Stereo
    Codec ID : 55
    Codec ID/Hint : MP3
    Duration : 1h 52mn
    Bit rate mode : Constant
    Bit rate : 128 Kbps
    Channel(s) : 2 channels
    Sampling rate : 44.1 KHz
    Stream size : 103 MiB (11%)
    Alignment : Aligned on interleaves
    Interleave, duration : 818 ms (19.62 video frames)
    Interleave, preload duration : 208 ms
    Title : HD Royals
    Writing library : LAME3.96.1



    NOTE:
    Full size image are not available..
    The screenshoots uploaded are not full size..






















    Back To The Future(1985) BRRip(Dual audio)[Eng Hindi]Current_HD
    Code:
    http://www.fileserve.com/file/w9DN8H7/Back To The Future(1985) BRRip(Dual audio)[Eng Hindi]Current_HD.avi
    
    http://www.filesonic.com/file/2755664505
    
    http://www.wupload.com/file/1283282666
    Back To The Future Part II(1989) BRRip(Dual audio)[Eng Hindi]Current_HD
    Code:
    http://www.fileserve.com/file/YB8NkZA/Back To The Future Part II(1989) BRRip(Dual audio)[Eng Hindi]Current_HD.avi
    
    http://www.filesonic.com/file/2755597005
    
    http://www.wupload.com/file/1283208486
    Back To The Future Part III
    Code:
    http://www.fileserve.com/file/GKWP8hs/Back To The Future Part III(1990.avi
    
    http://www.filesonic.com/file/2755662165
    
    http://www.wupload.com/file/1283466496



 

 

Posting Permissions

  • You may not post new threads
  • You may not post replies
  • You may not post attachments
  • You may not edit your posts
  •