Results 1 to 1 of 1
  1. #1

    Default RA One 2011 1-5 MC DVDScr Rip XviD AC3.avi

    Follow us on Social Media








    RA One 2011 1-5 MC DVDScr Rip XviD AC3.avi

    GENERAL:
    Complete name: RA One 2011 1-5 MC DVDScr Rip XviD AC3.avi
    Format: AVI
    Format/Info: Audio Video Interleave
    File size: 895 MiB
    Duration: 2h 34mn
    Overall bit rate: 809 Kbps
    Source: Mc-Screener @ Team ICTV .. Thnx A LOT



    VIDEO:
    ID: 0
    Format: MPEG-4 Visual
    Format profile: Advanced [email protected]
    Format settings, BVOP: 1
    Format settings, QPel: No
    Format settings, GMC: No warppoints
    Format settings: Matrix: Default (H.263)
    Muxing mode: Packed bitstream
    Codec ID: XVID
    Codec ID/Hint: XviD
    Duration: 2h 34mn
    Bit rate: 672 Kbps
    Width: 672 pixels
    Height: 288 pixels
    Display aspect ratio: 2.35:1
    Frame rate: 23.976 fps
    Color space: YUV
    Chroma subsampling: 4:2:0
    Bit depth: 8 bits
    Scan type: Progressive
    Compression mode: Lossy
    Bits/(Pixel*Frame): 0.145
    Stream size: 743 MiB (83%)
    Writing library: XviD 1.2.1 (UTC 2008-12-04)


    AUDIO:
    ID: 1
    Format: AC-3
    Format/Info: Audio Coding 3
    Mode extension: CM (complete main)
    Codec ID: 2000
    Duration: 2h 34mn
    Bit rate mode: Constant
    Bit rate: 128 Kbps
    Channel(s): 2 channels
    Channel positions: Front: L R
    Sampling rate: 48.0 KHz
    Bit depth: 16 bits
    Compression mode: Lossy
    Stream size: 142 MiB (16%)
    Alignment: Split accross interleaves
    Interleave, duration: 42 ms (1.00 video frame)
    Interleave, preload duration: 500 ms










    Free Download With (Wupload)
    Code:
    http://www.wupload.com/file/1749035111/Pls_Dont_Report_RA.One2011_-_1-5-MC-DVDScr-Rip-XviD-AC3-895MB-TDT.avi
    Free Download With (Filesonic)
    Code:
    http://www.filesonic.com/file/2832906135/Pls_Dont_Report_RA.One2011_-_1-5-MC-DVDScr-Rip-XviD-AC3-895MB-TDT.avi
    Free Download With (Fileserve)
    Code:
    http://www.fileserve.com/file/BsAMqcs/Pls_Dont_Report_RA.One2011_-_1-5-MC-DVDScr-Rip-XviD-AC3-895MB-TDT.avi

 

 

Posting Permissions

  • You may not post new threads
  • You may not post replies
  • You may not post attachments
  • You may not edit your posts
  •