Results 1 to 1 of 1
  1. #1
    shawn rebecca
    Guest

    Default UFC 137 PPV WS DSR XviD SuperS

    Follow us on Social Media







    UFC 137 PPV WS DSR XviD SuperS


    General Information
    Format : AVI
    Format/Info : Audio Video Interleave
    Format profile : OpenDML
    File size : 1.19 GiB
    Duration : 2h 53mn
    Overall bit rate : 981 Kbps
    Writing library : MPlayer
    Video
    ID : 0
    Format : MPEG-4 Visual
    Codec ID : XVID
    Codec ID/Hint : XviD
    Duration : 2h 53mn
    Bit rate : 25.9 Kbps
    Width : 624 pixels
    Height : 352 pixels
    Display aspect ratio : 16:9
    Frame rate : 25.000 fps
    Color space : YUV
    Chroma subsampling : 4:2:0
    Compression mode : Lossy
    Bits/(Pixel*Frame) : 0.005
    Stream size : 32.1 MiB (3%)
    Audio
    ID : 1
    Format : MPEG Audio
    Codec ID : 55
    Codec ID/Hint : MP3
    Duration : 2h 53mn
    Bit rate : 119 Kbps
    Channel(s) : 2 channels
    Sampling rate : 48.0 KHz
    Compression mode : Lossy
    Stream size : 148 MiB (12%)
    Alignment : Aligned on interleaves
    1 LINK DoWNLOAD

    Code:
    http://www.filesonic.com/file/2825186245/UFC.137.PPV.WS.DSR.XviD-SS.avi
    Code:
    http://www.fileserve.com/file/mPEEDpy/UFC.137.PPV.WS.DSR.XviD-SS.avi
    1 GB LinKS [Fileserve + Filesonic]

    Code:
    http://www.filesonic.com/file/2825192175/UFC.137.PPV.WS.DSR.XviD-SS.part1.rar
    http://www.filesonic.com/file/2825186465/UFC.137.PPV.WS.DSR.XviD-SS.part2.rar
    Code:
    http://www.fileserve.com/file/ACMG5tm/UFC.137.PPV.WS.DSR.XviD-SS.part2.rar
    http://www.fileserve.com/file/mbTv4uJ/UFC.137.PPV.WS.DSR.XviD-SS.part1.rar

 

 

Posting Permissions

  • You may not post new threads
  • You may not post replies
  • You may not post attachments
  • You may not edit your posts
  •