Results 1 to 1 of 1
  1. #1
    !-~GunDa~-! www.desirulez.net
    Join Date
    Mar 2011
    Location
    Lahore
    Posts
    600

    T

    Default RA ONE {2011} 1Cd-Scam Rip By SAIF TDT

    Follow us on Social Media









    ==============================================================
    RA ONE {2011} 1Cd-Scam Rip By SAIF TDT
    ==============================================================








    General
    Complete name : RA ONE [2011] 1Cd-Scam_Rip By [~SAIF~] [~TDT~]
    IMDB : RA. One (2011) - IMDb

    Source :YAMRAJ
    Ripper : SAIF [~TDT~]

    Format : AVI
    Format/Info : Audio Video Interleave
    File size : 698 MiB
    Duration : 1h 56mn
    Overall bit rate : 837 Kbps
    Writing library : VirtualDub build 32842/release

    Video
    ID : 0
    Format : MPEG-4 Visual
    Format profile : Advanced [email protected]
    Format settings, BVOP : 2
    Format settings, QPel : No
    Format settings, GMC : No warppoints
    Format settings, Matrix : Default (H.263)
    Codec ID : XVID
    Codec ID/Hint : XviD
    Duration : 1h 56mn
    Bit rate : 700 Kbps
    Width : 592 pixels
    Height : 256 pixels
    Display aspect ratio : 2.35:1
    Frame rate : 23.976 fps
    Color space : YUV
    Chroma subsampling : 4:2:0
    Bit depth : 8 bits
    Scan type : Interlaced
    Scan order : Bottom Field First
    Compression mode : Lossy
    Bits/(Pixel*Frame) : 0.193
    Stream size : 584 MiB (84%)
    Writing library : XviD 1.2.1 (UTC 2008-12-04)

    Audio
    ID : 1
    Format : MPEG Audio
    Format version : Version 1
    Format profile : Layer 3
    Mode : Joint stereo
    Mode extension : MS Stereo
    Codec ID : 55
    Codec ID/Hint : MP3
    Duration : 1h 56mn
    Bit rate mode : Constant
    Bit rate : 128 Kbps
    Channel(s) : 2 channels
    Sampling rate : 48.0 KHz
    Compression mode : Lossy
    Stream size : 107 MiB (15%)
    Alignment : Split accross interleaves
    Interleave, duration : 42 ms (1.00 video frame)
    Interleave, preload duration : 500 ms
    Writing library : LAME3.98r
    Encoding settings : -m j -V 4 -q 2 -lowpass 17 -b 128














    Code:
    -------------------------------Sample-----------------------------
    http://www.sendspace.com/file/2mdbe7


    Code:
    http://www.fileserve.com/file/HSYX44U
    Code:
    http://www.filesonic.com/file/2751483915
    Code:
    http://www.wupload.com/file/1249275766



 

 

Posting Permissions

  • You may not post new threads
  • You may not post replies
  • You may not post attachments
  • You may not edit your posts
  •