Results 1 to 1 of 1
  1. #1
    dR Rockers www.desirulez.net
    Join Date
    Aug 2011
    Posts
    5,859

    T

    Default Bol (2011) - Music Videos - Untouched - DVD9 - NTSC - Ibraram-=DrC=-

    Follow us on Social Media









    Bol (2011) - Music Videos - Untouched - DVD9 - NTSC - Ibraram-=DrC=-
















    Code:
    Movie           : Bol (2011)
    Imdb            : http://www.imdb.com/title/tt1891757/
    Language        : Urdu | Punjabi | English (a few lines) | Hindi (a few lines)  
    Distributor     : GOE Films and Eros International Ltd.
    Source          : DVD9 @ xDR
    Ripper          : Ibraram @ DrC
    Size            : 787 MB
    Container       : Vobs Untouched
    Release Date    : 24 June 2011 (Pakistan)
    Genre           : Crime | Drama | Thriller  
    Director        : Shoaib Mansoor
    Writers         : Shoaib Mansoor
    Stars           : Humaima Malik, Manzar Sehbai and Iman Ali
    Music Label     : 
    Singers         : Atif Aslam , Shoaib Mansoor , Sajjad Ali , Ahmed Jahanzeb
    Lyricist        : 
    User Rating     : 8.4/10 from 1,379 users
    Ripper Note:


    Njoy DrC Release.

    Always Seed After Complete Enjoy.

    Storyline





    Zainub Khan has been found guilty by Pakistan's Courts

    and is to be hanged. Her last wish is to tell her story

    before the media, and after approval, she relates how

    her family was compelled to leave Delhi during 1948 and

    re-locate to Lahore. This is where her father, Hakim

    Sayed Hashmutallah Khan, married Suraiya, and hoping

    to sire a son, instead ended up with 7 daughters. The

    8th child turned out to be a hermaphrodite and

    Hashmutullah wanted it dead but Suraiya insisted

    that she will not let anyone know so as not to shame

    her husband. They named the child Saifullah, and hired

    a tutor to teach him at home. After a failed marriage,

    Zainub returns home, notices that the tutor was molesting

    her brother and asks him to leave. With dwindling

    income from his father, unable to attend school,

    his mother giving birth to still-born babies, his

    siblings uneducated, Saifullah is then himself

    compelled to seek employment.



    User Reviews:


    Code:
    The movie Bol is Shoaib Mansoor's second dramatic

    breakthrough of revealing life with its complexities.

    After 'Khuda Kay Liye', that went on to win several

    local as well as international awards, in Bol you

    can see Atif Aslam as Actor with Iman Ali, its

    another gripping story authored by him. A story

    that shows the realities of life very closely in

    typical shoaib mansoor's style.

    The movie is as much emotional story as we can say

    Bol is a roller coaster of emotions, yet carries

    subtleties that make your heartbeat stop. Atif aslam

    is a good touch but seriously i don't like him and

    think acting is not his thing.

    To watch or not to watch the film is not a question.

    You just have to watch it. Pakistan doesn't make films l

    ike this one everyday
    Technical info:






    Code:



    Format : MPEG-PS
    Overall bit rate : 5 793 Kbps

    Video
    ID : 224 (0xE0)
    Format : MPEG Video
    Format version : Version 2
    Format profile : [email protected]
    Format settings, BVOP : Yes
    Format settings, Matrix : Default
    Format settings, GOP : M=3, N=12
    Bit rate mode : Variable
    Bit rate : 5 005 Kbps
    Maximum bit rate : 8 000 Kbps
    Width : 720 pixels
    Height : 480 pixels
    Display aspect ratio : 16:9
    Frame rate : 23.976 fps
    Standard : NTSC
    Color space : YUV
    Chroma subsampling : 4:2:0
    Bit depth : 8 bits
    Scan type : Progressive
    Scan order : 2:3 Pulldown
    Compression mode : Lossy
    Bits/(Pixel*Frame) : 0.604
    Stream size : 88.9 MiB (86%)

    Audio #1
    ID : 189 (0xBD)-128 (0x80)
    Format : AC-3
    Format/Info : Audio Coding 3
    Mode extension : CM (complete main)
    Muxing mode : DVD-Video
    Bit rate mode : Constant
    Bit rate : 448 Kbps
    Channel(s) : 6 channels
    Channel positions : Front: L C R, Side: L R, LFE
    Sampling rate : 48.0 KHz
    Bit depth : 16 bits
    Compression mode : Lossy
    Delay relative to video : -232ms
    Stream size : 7.96 MiB (8%)

    Audio #2
    ID : 189 (0xBD)-129 (0x81)
    Format : AC-3
    Format/Info : Audio Coding 3
    Mode extension : CM (complete main)
    Muxing mode : DVD-Video
    Duration : 2mn 29s
    Bit rate mode : Constant
    Bit rate : 224 Kbps
    Channel(s) : 2 channels
    Channel positions : Front: L R
    Sampling rate : 48.0 KHz
    Bit depth : 16 bits
    Compression mode : Lossy
    Delay relative to video : -168ms
    Stream size : 3.98 MiB (4%)

    Track List:

    Code:
    01 - Din Pareshaan Hai - Bol (2011) - Music Videos - Untouched - DVD9 - NTSC - Ibraram-=DrC=-
    02 - Dil Jaaniya - Bol (2011) - Music Videos - Untouched - DVD9 - NTSC - Ibraram-=DrC-=
    03 - Hona Tha Pyaar - Bol (2011) - Music Videos - Untouched - DVD9 - NTSC - Ibraram-=DrC-=
    04 - Kaho (Aaj Bol Do) 1 - Bol (2011) - Music Videos - Untouched - DVD9 - NTSC - Ibraram-=DrC-=
    05 - Mumkin Hai - Bol (2011) - Music Videos - Untouched - DVD9 - NTSC - Ibraram-=DrC-=
    06 - Kaho (Aaj Bol Do) 2 - Bol (2011) - Music Videos - Untouched - DVD9 - NTSC - Ibraram-=DrC-=
    07 - Sayyan Bolein - Bol (2011) - Music Videos - Untouched - DVD9 - NTSC - Ibraram-=DrC-=


























    Code:
    http://www.filesonic.com/file/2728993191/01 - Din Pareshaan Hai - Bol (2011) - Music Videos - Untouched - DVD9 - NTSC - Ibraram.VOB
    http://www.filesonic.com/file/2728993231/02 - Dil Jaaniya - Bol (2011) - Music Videos - Untouched - DVD9 - NTSC - Ibraram.VOB
    http://www.filesonic.com/file/2729003101/03 - Hona Tha Pyaar - Bol (2011) - Music Videos - Untouched - DVD9 - NTSC - Ibraram.VOB
    http://www.filesonic.com/file/2729003071/04 - Kaho (Aaj Bol Do) 1 - Bol (2011) - Music Videos - Untouched - DVD9 - NTSC - Ibraram.VOB
    http://www.filesonic.com/file/2729002911/05 - Mumkin Hai - Bol (2011) - Music Videos - Untouched - DVD9 - NTSC - Ibraram.VOB
    http://www.filesonic.com/file/2729002891/06 - Kaho (Aaj Bol Do) 2 - Bol (2011) - Music Videos - Untouched - DVD9 - NTSC - Ibraram.VOB
    http://www.filesonic.com/file/2728888561/07 - Sayyan Bolein - Bol (2011) - Music Videos - Untouched - DVD9 - NTSC - Ibraram.VOB
    Code:
    http://www.fileserve.com/file/wnYhF33/01 - Din Pareshaan Hai - Bol (2011) - Music Videos - Untouched - DVD9 - NTSC - Ibraram.VOB
    http://www.fileserve.com/file/Xg8V2ZZ/02 - Dil Jaaniya - Bol (2011) - Music Videos - Untouched - DVD9 - NTSC - Ibraram.VOB
    http://www.fileserve.com/file/VmTDPyG/03 - Hona Tha Pyaar - Bol (2011) - Music Videos - Untouched - DVD9 - NTSC - Ibraram.VOB
    http://www.fileserve.com/file/DRARrqh/04 - Kaho (Aaj Bol Do) 1 - Bol (2011) - Music Videos - Untouched - DVD9 - NTSC - Ibraram.VOB
    http://www.fileserve.com/file/cXsVBVE/05 - Mumkin Hai - Bol (2011) - Music Videos - Untouched - DVD9 - NTSC - Ibraram.VOB
    http://www.fileserve.com/file/GP7rb5W/06 - Kaho (Aaj Bol Do) 2 - Bol (2011) - Music Videos - Untouched - DVD9 - NTSC - Ibraram.VOB
    http://www.fileserve.com/file/QYuXnuX/07 - Sayyan Bolein - Bol (2011) - Music Videos - Untouched - DVD9 - NTSC - Ibraram.VOB
    Code:
    http://www.wupload.com/file/1077427586/01 - Din Pareshaan Hai - Bol (2011) - Music Videos - Untouched - DVD9 - NTSC - Ibraram.VOB
    http://www.wupload.com/file/1077425146/02 - Dil Jaaniya - Bol (2011) - Music Videos - Untouched - DVD9 - NTSC - Ibraram.VOB
    http://www.wupload.com/file/1077425641/03 - Hona Tha Pyaar - Bol (2011) - Music Videos - Untouched - DVD9 - NTSC - Ibraram.VOB
    http://www.wupload.com/file/1073598051/04 - Kaho (Aaj Bol Do) 1 - Bol (2011) - Music Videos - Untouched - DVD9 - NTSC - Ibraram.VOB
    http://www.wupload.com/file/1077425291/05 - Mumkin Hai - Bol (2011) - Music Videos - Untouched - DVD9 - NTSC - Ibraram.VOB
    http://www.wupload.com/file/1077425316/06 - Kaho (Aaj Bol Do) 2 - Bol (2011) - Music Videos - Untouched - DVD9 - NTSC - Ibraram.VOB
    http://www.wupload.com/file/1076911676/07 - Sayyan Bolein - Bol (2011) - Music Videos - Untouched - DVD9 - NTSC - Ibraram.VOB

 

 

Posting Permissions

  • You may not post new threads
  • You may not post replies
  • You may not post attachments
  • You may not edit your posts
  •