Results 1 to 1 of 1
  1. #1
    dR Contributor www.desirulez.net
    Join Date
    Mar 2010
    Posts
    2,245

    T

    Default Vadh (2002) DvD - 2CD - Rip - AVC - x264 - Esub - 6 channels (XMR)

    Follow us on Social Media










    Vadh (2002) DvD - 2CD - Rip - AVC - x264 - Esub - 6 channels (XMR)








    Ripper : Rahul
    Source : IMN
    Complete name : Vadh (2002)
    Format : Matroska
    File size : 1.37 GiB
    Duration : 2h 12mn
    Overall bit rate : 1 479 Kbps
    Encoded date : UTC 2011-10-07 08:46:24
    Writing application : mkvmerge v4.9.1 ('Ich will')


    Video
    ID : 1
    Format : AVC
    Format/Info : Advanced Video Codec
    Format profile : [email protected]
    Format settings, CABAC : Yes
    Format settings, ReFrames : 4 frames
    Codec ID : V_MPEG4/ISO/AVC
    Duration : 2h 12mn
    Bit rate : 1 093 Kbps
    Width : 704 pixels
    Height : 304 pixels
    Display aspect ratio : 2.35:1
    Frame rate : 23.976 fps
    Color space : YUV
    Chroma subsampling : 4:2:0
    Bit depth : 8 bits
    Scan type : Progressive
    Bits/(Pixel*Frame) : 0.213
    Stream size : 1 007 MiB (72%)
    Writing library : x264 core 116 r2074 2641b9e


    Audio
    ID : 2
    Format : AC-3
    Format/Info : Audio Coding 3
    Mode extension : CM (complete main)
    Codec ID : A_AC3
    Duration : 2h 12mn
    Bit rate mode : Constant
    Bit rate : 384 Kbps
    Channel(s) : 6 channels
    Channel positions : Front: L C R, Side: L R, LFE
    Sampling rate : 48.0 KHz
    Bit depth : 16 bits
    Compression mode : Lossy
    Stream size : 363 MiB (26%)



















    Single Links Downloads



    Code:
    http://www.filesonic.com/file/2672505881/Vadh.2002.DvD.2CD.Rip.AVC.x264.Esub.6channels.mkv
    
    
    
    
    http://www.wupload.com/file/591579941/Vadh.2002.DvD.2CD.Rip.AVC.x264.Esub.6channels.mkv
    
    
    
    
    http://www.fileserve.com/file/H9UfnZk/Vadh.2002.DvD.2CD.Rip.AVC.x264.Esub.6channels.mkv

 

 

Posting Permissions

  • You may not post new threads
  • You may not post replies
  • You may not post attachments
  • You may not edit your posts
  •