Results 1 to 1 of 1
  1. #1
    dR Rockers www.desirulez.net
    Join Date
    Apr 2011
    Posts
    687

    T

    Default Evil Dead II (1987) - Hindi Dubbed - 500MB - 480P - BR Rip - x264 - AAC [ BHATTI87 ]

    Follow us on Social Media







    Evil Dead II (1987) - Hindi Dubbed - 500MB - 480P - BR Rip - x264 - AAC [ BHATTI87 ]






    Code:
    http://www.imdb.com/title/tt0092991/


    Code:
    http://en.wikipedia.org/wiki/Evil_Dead_II

    RIP INFO

    Code:
    Video
    ID                              : 1
    Format                          : AVC
    Format/Info                     : Advanced Video Codec
    Duration                        : 1h 24mn
    Bit rate                        : 691 Kbps
    Width                           : 848 pixels
    Height                          : 368 pixels
    Display aspect ratio            : 2.35:1
    Frame rate                      : 23.976 fps
    Scan type                       : Progressive
    Bits/(Pixel*Frame)              : 0.092
    Stream size                     : 407 MiB (82%)
    
    
    Audio
    
    Format                          : AC-3
    Codec ID                        : A_AC3
    Duration                        : 1h 24mn
    Bit rate mode                   : Constant
    Bit rate                        : 128 Kbps
    Channel(s)                      : 2 channels
    Channel positions               : Front: L R
    Sampling rate                   : 44.1 KHz
    Bit depth                       : 16 bits
    Compression mode                : Lossy
    Stream size                     : 77.1 MiB (16%)















    Source : BHATTI87
    Ripper : BHATTI87





    FileDino


    Code:
    http://www.filedino.com/g6ed9wh1o5yi


    FileJungle


    Code:
    http://www.filejungle.com/f/2C5ysH/E.DeadII.1987.HDRip.480p.Hindi.mkv




    Wupload



    Code:
    http://www.wupload.com/file/758332186/E.DeadII.1987.HDRip.480p.Hindi.mkv



    Filesonic


    Code:
    http://www.filesonic.com/file/2694742794/E.DeadII.1987.HDRip.480p.Hindi.mkv


    Fileserve

    Code:
    http://www.fileserve.com/file/dK4pHu2/E.DeadII.1987.HDRip.480p.Hindi.mkv



 

 

Posting Permissions

  • You may not post new threads
  • You may not post replies
  • You may not post attachments
  • You may not edit your posts
  •