Results 1 to 1 of 1
  1. #1
    dR Rockers www.desirulez.net
    Join Date
    Aug 2011
    Posts
    5,859

    Default Tara Rum Pum (2007) - 1.56GB - 2CD - DVDRip - x264 - Ac3 - [TDBB]

    Follow us on Social Media







    Tara Rum Pum 2 CD DVD Rip x264 Ac3 Adi Jawed [TDBB]








    General
    Complete name : Tara Rum Pum 2 CD DVD Rip x264 Ac3 Adi Jawed [TDBB]
    Format : Matroska
    Format version : Version 2
    File size : 1.56 GiB
    Duration : 2h 36mn
    Overall bit rate : 1 434 Kbps
    Ripper : Adi Jawed
    Source : DVD9 [TDBB]
    Video
    ID : 1
    Format : AVC
    Format/Info : Advanced Video Codec
    Format profile : [email protected]
    Format settings, CABAC : Yes
    Format settings, ReFrames : 4 frames
    Muxing mode : Header stripping
    Codec ID : V_MPEG4/ISO/AVC
    Duration : 2h 36mn
    Bit rate : 985 Kbps
    Width : 720 pixels
    Height : 304 pixels
    Display aspect ratio : 2.35:1
    Frame rate : 23.976 fps
    Color space : YUV
    Chroma subsampling : 4:2:0
    Bit depth : 8 bits
    Scan type : Progressive
    Bits/(Pixel*Frame) : 0.188
    Stream size : 1.04 GiB (67%)
    Audio
    ID : 2
    Format : AC-3
    Format/Info : Audio Coding 3
    Mode extension : CM (complete main)
    Muxing mode : Header stripping
    Codec ID : A_AC3
    Duration : 2h 36mn
    Bit rate mode : Constant
    Bit rate : 448 Kbps
    Channel(s) : 6 channels
    Channel positions : Front: L C R, Side: L R, LFE
    Sampling rate : 48.0 KHz
    Bit depth : 16 bits
    Compression mode : Lossy
    Stream size : 501 MiB (31%)


















    SINGLE LINK
    Code:
    http://www.fileserve.com/file/Eqs97cp/Tara Rum Pum 2 CD DVD Rip x264 Ac3 Adi Jawed [TDBB].mkv

    Code:
    http://www.filesonic.com/file/2670316151/Tara Rum Pum 2 CD DVD Rip x264 Ac3 Adi Jawed [TDBB].mkv
    Code:
    http://www.wupload.com/file/556914831/Tara Rum Pum 2 CD DVD Rip x264 Ac3 Adi Jawed [TDBB].mkv

    450MB LINKS


    Code:
    http://www.fileserve.com/file/SsvJH6v/Tara Rum Pum 2 CD DVD Rip x264 Ac3 Adi Jawed [TDBB].mkv.001
    http://www.fileserve.com/file/nYgHqyV/Tara Rum Pum 2 CD DVD Rip x264 Ac3 Adi Jawed [TDBB].mkv.002
    http://www.fileserve.com/file/BDjSD44/Tara Rum Pum 2 CD DVD Rip x264 Ac3 Adi Jawed [TDBB].mkv.003
    http://www.fileserve.com/file/JDMcAb7/Tara Rum Pum 2 CD DVD Rip x264 Ac3 Adi Jawed [TDBB].mkv.004
    
    
    http://www.filesonic.com/file/2670306991/Tara Rum Pum 2 CD DVD Rip x264 Ac3 Adi Jawed [TDBB].mkv.001
    http://www.filesonic.com/file/2670307011/Tara Rum Pum 2 CD DVD Rip x264 Ac3 Adi Jawed [TDBB].mkv.002
    http://www.filesonic.com/file/2670304231/Tara Rum Pum 2 CD DVD Rip x264 Ac3 Adi Jawed [TDBB].mkv.003
    http://www.filesonic.com/file/2670304081/Tara Rum Pum 2 CD DVD Rip x264 Ac3 Adi Jawed [TDBB].mkv.004
    
    
    http://www.wupload.com/file/555750301/Tara Rum Pum 2 CD DVD Rip x264 Ac3 Adi Jawed [TDBB].mkv.001
    http://www.wupload.com/file/553945116/Tara Rum Pum 2 CD DVD Rip x264 Ac3 Adi Jawed [TDBB].mkv.002
    http://www.wupload.com/file/553865276/Tara Rum Pum 2 CD DVD Rip x264 Ac3 Adi Jawed [TDBB].mkv.003
    http://www.wupload.com/file/555934936/Tara Rum Pum 2 CD DVD Rip x264 Ac3 Adi Jawed [TDBB].mkv.004


 

 

Posting Permissions

  • You may not post new threads
  • You may not post replies
  • You may not post attachments
  • You may not edit your posts
  •