Results 1 to 2 of 2
  1. #1
    dR Rockers www.desirulez.net
    Join Date
    Aug 2011
    Posts
    5,859

    T

    Default Hook ( 1991 ) 1CD - Rip - AVC - x264 - Esub - AC3 - HINDI - ( XMR )

    Follow us on Social Media











    Hook ( 1991 )










    Code:
    Ripper                           : Rahul
    Source                           : ICTV
    Complete name                    : Hook ( 1991 )
    Format                           : Matroska
    File size                        : 686 MiB
    Duration                         : 2h 21mn
    Overall bit rate                 : 677 Kbps
    Encoded date                     : UTC 2011-10-19 18:17:38
    Writing application              : mkvmerge v4.3.0 ('Escape from the 
    
    Video
    ID                               : 1
    Format                           : AVC
    Format/Info                      : Advanced Video Codec
    Format profile                   : [email protected]
    Format settings, CABAC           : Yes
    Format settings, ReFrames        : 4 frames
    Muxing mode                      : Header stripping
    Codec ID                         : V_MPEG4/ISO/AVC
    Duration                         : 2h 21mn
    Bit rate                         : 548 Kbps
    Width                            : 624 pixels
    Height                           : 272 pixels
    Display aspect ratio             : 2.25:1
    Frame rate                       : 23.976 fps
    Color space                      : YUV
    Chroma subsampling               : 4:2:0
    Bit depth                        : 8 bits
    Scan type                        : Progressive
    Bits/(Pixel*Frame)               : 0.135
    Stream size                      : 543 MiB (79%)
    Writing library                  : x264 core 116 r2074 2641b9e
    
    
    Audio
    ID                               : 2
    Format                           : AC-3
    Format/Info                      : Audio Coding 3
    Mode extension                   : CM (complete main)
    Muxing mode                      : Header stripping
    Codec ID                         : A_AC3
    Duration                         : 2h 21mn
    Bit rate mode                    : Constant
    Bit rate                         : 128 Kbps
    Channel(s)                       : 2 channels
    Channel positions                : Front: L R
    Sampling rate                    : 48.0 KHz
    Bit depth                        : 16 bits
    Compression mode                 : Lossy
    Stream size                      : 130 MiB (19%)

    Synopsis





    Cast






















    Code:
    http://www.fileserve.com/file/PXMjjfG/Hook ( 1991 ) 1CD - Rip - AVC - x264 - Esub - AC3 ( XMR ).mkv
    
    http://www.fileserve.com/file/PDHpGSm/Hook ( 1991 ) 1CD - Rip - AVC - x264 - Esub - AC3 ( XMR ).idx
    
    http://www.fileserve.com/file/T2KMYq4/Hook ( 1991 ) 1CD - Rip - AVC - x264 - Esub - AC3 ( XMR ).sub
    Code:
    http://www.filesonic.com/file/2670307161/Hook ( 1991 ) 1CD - Rip - AVC - x264 - Esub - AC3 ( XMR ).mkv
    http://www.filesonic.com/file/2670307021/Hook ( 1991 ) 1CD - Rip - AVC - x264 - Esub - AC3 ( XMR ).sub
    Code:
    http://www.wupload.com/file/555749781/Hook ( 1991 ) 1CD - Rip - AVC - x264 - Esub - AC3 ( XMR ).mkv
    http://www.wupload.com/file/553854286/Hook ( 1991 ) 1CD - Rip - AVC - x264 - Esub - AC3 ( XMR ).sub

  2. #2
    New Arrivals
    Join Date
    Oct 2011
    Posts
    6

    T

    Default thankyou

    thankyouverymuch

 

 

Posting Permissions

  • You may not post new threads
  • You may not post replies
  • You may not post attachments
  • You may not edit your posts
  •